Tags
Language
Tags
April 2024
Su Mo Tu We Th Fr Sa
31 1 2 3 4 5 6
7 8 9 10 11 12 13
14 15 16 17 18 19 20
21 22 23 24 25 26 27
28 29 30 1 2 3 4

John Parr - The Mission (2012)

Posted By: BlondStyle
John Parr - The Mission (2012)

John Parr - The Mission (2012)
Rock, Melodic Rock, AOR | EAC Rip | FLAC, Img+CUE+LOG+Scans (PNG) | 01:05:42 h. | 802,31 Mb
Label: John Parr Music Ltd. (EU) | Cat.# JPMCD004 | Released: 2012-07-04

In 2012 Parr wrote and produced a new studio album "The Mission". The funds went to The USO, USA Cares and Military Families charities. Parr's quest is to raise funds and awareness of military personal's welfare when they return home from active duty as they make the transition back into normal life.
~Wikipedia
UK '80s AORster John Parr seems focused lately in the American market. His new album "The Mission" is a tribute to the men and women in the Military, released in close conjunction with the Armed Forces related organizations. As heard in the last year CD, Parr's style and sound now is oriented to a more American sound combining rockers with ballads. The Mission" is genuine Parr. There’s no distortion or alteration in his signature songwriting, and his voice is as solid as in the eighties and nineties works.Parr has created each song to tell a story and each story relates to the overall theme of the album, which is life centered around military service. Although on paper this looks boring, each track stands by its own.
~Wikipedia

John Parr - The Mission (2012)

John Parr - The Mission (2012)




Release of this album/CD: 2012, July, 4 [CDs John Parr Music Ltd. (EU), Cat.# JPMCD004 / UPC: 094922396181]
© 2012 John Parr Music Ltd.
Made in EU

Note: Cardboard Sleeve edition with 16 pages of Booklet insert.

Credits:

Mastered By – John Spence
Produced By, Written By, Recorded By – John Parr
Recorded at – Somewhere In Yorkshire Studios


Tracklist:

01. Big Bad Silverado (03:47)
02. Enlisted Man (04:18)
03. The Boy I Left Behind (05:31)
04. Come Out Fightin' (05:14)
05. Solder's Wife (04:11)
06. Boots On The Ground (03:14)
07. Military Man (03:45)
08. A Few Good Men (04:36)
09. Fightin' Girl (05:01)
10. At The Cathedral (03:17)
11. Fly Boys Fly (03:50)
12. M4 Practice (05:37)
13. USA Cares (03:38)
14. Bound By The Thread Of The Flag (04:28)
15. Comin' Home (04:35)

Exact Audio Copy V1.0 beta 3 from 29. August 2011

EAC extraction logfile from 28. April 2015, 22:09

John Parr / The Mission

Used drive : PIONEER BD-RW BDR-207D Adapter: 1 ID: 0

Read mode : Secure
Utilize accurate stream : Yes
Defeat audio cache : Yes
Make use of C2 pointers : No

Read offset correction : 667
Overread into Lead-In and Lead-Out : No
Fill up missing offset samples with silence : Yes
Delete leading and trailing silent blocks : No
Null samples used in CRC calculations : Yes
Used interface : Native Win32 interface for Win NT & 2000

Used output format : User Defined Encoder
Selected bitrate : 128 kBit/s
Quality : High
Add ID3 tag : No
Command line compressor : C:\Program Files (x86)\Exact Audio Copy\Flac\flac.exe
Additional command line options : -V -8 -T "Date=%year%" -T "Genre=%genre%" %source%


TOC of the extracted CD

Track | Start | Length | Start sector | End sector
––––––––––––––––––––––––––––-
1 | 0:00.00 | 3:50.14 | 0 | 17263
2 | 3:50.14 | 4:21.37 | 17264 | 36875
3 | 8:11.51 | 5:31.69 | 36876 | 61769
4 | 13:43.45 | 5:17.09 | 61770 | 85553
5 | 19:00.54 | 4:13.39 | 85554 | 104567
6 | 23:14.18 | 3:17.00 | 104568 | 119342
7 | 26:31.18 | 3:47.62 | 119343 | 136429
8 | 30:19.05 | 4:39.45 | 136430 | 157399
9 | 34:58.50 | 5:04.06 | 157400 | 180205
10 | 40:02.56 | 3:19.64 | 180206 | 195194
11 | 43:22.45 | 3:52.54 | 195195 | 212648
12 | 47:15.24 | 5:40.30 | 212649 | 238178
13 | 52:55.54 | 3:40.53 | 238179 | 254731
14 | 56:36.32 | 4:31.03 | 254732 | 275059
15 | 61:07.35 | 4:34.53 | 275060 | 295662


Range status and errors

Selected range

Filename D:\John Parr - The Mission (JPMCD004) (2012)\John Parr - The Mission (JPMCD004) (2012).wav

Peak level 93.9 %
Extraction speed 2.7 X
Range quality 99.9 %
Test CRC 595BE133
Copy CRC 595BE133
Copy OK

No errors occurred


AccurateRip summary

Track 1 not present in database
Track 2 not present in database
Track 3 not present in database
Track 4 not present in database
Track 5 not present in database
Track 6 not present in database
Track 7 not present in database
Track 8 not present in database
Track 9 not present in database
Track 10 not present in database
Track 11 not present in database
Track 12 not present in database
Track 13 not present in database
Track 14 not present in database
Track 15 not present in database

None of the tracks are present in the AccurateRip database

End of status report

==== Log checksum 4A6F1C69CF19097C90EB8124890EF5972A805DDDFCF9923B81A68AE544F863D4 ====

––––––––––––––––––––––––––––––––––––––––
Analyzed: John Parr / The Mission
––––––––––––––––––––––––––––––––––––––––

DR Peak RMS Duration Track
––––––––––––––––––––––––––––––––––––––––
DR7 -0.70 dB -9.41 dB 3:50 01-Big Bad Silverado
DR6 -1.80 dB -8.80 dB 4:21 02-Enlisted Man
DR9 -1.72 dB -13.21 dB 5:32 03-The Boy I Left Behind
DR6 -0.54 dB -8.65 dB 5:17 04-Come Out Fightin'
DR7 -1.44 dB -12.31 dB 4:14 05-Solder's Wife
DR8 -1.41 dB -11.13 dB 3:17 06-Boots On The Ground
DR7 -0.92 dB -9.65 dB 3:48 07-Military Man
DR7 -0.92 dB -9.17 dB 4:40 08-A Few Good Men
DR7 -0.92 dB -9.00 dB 5:04 09-Fightin' Girl
DR9 -3.26 dB -15.73 dB 3:20 10-At The Cathedral
DR8 -0.71 dB -9.26 dB 3:53 11-Fly Boys Fly
DR9 -0.93 dB -12.96 dB 5:40 12-M4 Practice
DR7 -0.92 dB -9.89 dB 3:41 13-USA Cares
DR10 -1.45 dB -15.54 dB 4:31 14-Bound By The Thread Of The Flag
DR7 -0.88 dB -10.35 dB 4:35 15-Comin' Home
––––––––––––––––––––––––––––––––––––––––

Number of tracks: 15
Official DR value: DR8

Samplerate: 44100 Hz
Channels: 2
Bits per sample: 16
Bitrate: 864 kbps
Codec: FLAC
================================================================================

Thanks to D-Omen

See also:
John Parr - John Parr (1984)
John Parr - Man With A Vision (1992)
John Parr - Letter To America [2CD] (2011)

password: BlondStyle