Tags
Language
Tags

John Scofield - A Moment's Peace (2011) {Emarcy} [Re-Up]

Posted By: tiburon
John Scofield - A Moment's Peace (2011) {Emarcy} [Re-Up]

John Scofield - A Moment's Peace (2011) {Emarcy}
EAC 1.0b1 | FLAC tracks level 8 | Cue+Log+M3U+MD5 | Full Scans 600dpi | 413MB + 5% Recovery
Genre: Jazz

On A Moment’s Peace, his followup to 2009’s gospel-drenched Piety Street, Scofield and his all-star crew of pianist/organist Larry Goldings, bassist Scott Colley and drummer Brian Blade luxuriate in ballads associated with such legendary interpreters of song as Billie Holiday, Abbey Lincoln, Nina Simone and John Coltrane.
Track List
01. Simply Put 5:29
02. I Will 3:16
03. Lawns 6:32
04. Throw It Away 6:05
05. I Want To Talk About You 7:56
06. Gee Baby Ain't I Good To You 5:01
07. Johan 5:11
08. Mood Returns 4:27
09. Already September 5:32
10. You Don't Know What Love Is 6:00
11. Plain Song 5:01
12. I Loves You Porgy 3:59

musicians
John Scofield - guitar
Larry Goldings - piano & organ
Scott Colley - bass
Brian Blade - drums

Produced by John Scofield


Exact Audio Copy V1.0 beta 1 from 15. November 2010

EAC extraction logfile from 21. June 2011, 1:00

John Scofield / A Moment's Peace

Used drive : HL-DT-STDVDRAM GH20NS10 Adapter: 2 ID: 1

Read mode : Secure
Utilize accurate stream : Yes
Defeat audio cache : Yes
Make use of C2 pointers : No

Read offset correction : 667
Overread into Lead-In and Lead-Out : No
Fill up missing offset samples with silence : Yes
Delete leading and trailing silent blocks : No
Null samples used in CRC calculations : Yes
Used interface : Native Win32 interface for Win NT & 2000
Gap handling : Appended to previous track

Used output format : User Defined Encoder
Selected bitrate : 1024 kBit/s
Quality : High
Add ID3 tag : No
Command line compressor : C:\Program Files\Exact Audio Copy\Flac\flac.exe
Additional command line options : -8 -V -T "ARTIST=%a" -T "TITLE=%t" -T "ALBUM=%g" -T "DATE=%y" -T "TRACKNUMBER=%n" -T "TOTALTRACKS=%x" -T "GENRE=%m" -T "ALBUMARTIST=%v" -T "ALBUM ARTIST=%v" -T "COMMENT=EAC Secure Mode, Test & Copy, AccurateRip, FLAC -8" %s


TOC of the extracted CD

Track | Start | Length | Start sector | End sector
––––––––––––––––––––––––––––-
1 | 0:00.00 | 5:30.21 | 0 | 24770
2 | 5:30.21 | 3:16.21 | 24771 | 39491
3 | 8:46.42 | 6:32.63 | 39492 | 68954
4 | 15:19.30 | 6:05.52 | 68955 | 96381
5 | 21:25.07 | 7:56.23 | 96382 | 132104
6 | 29:21.30 | 5:01.11 | 132105 | 154690
7 | 34:22.41 | 5:11.20 | 154691 | 178035
8 | 39:33.61 | 4:27.64 | 178036 | 198124
9 | 44:01.50 | 5:33.42 | 198125 | 223141
10 | 49:35.17 | 6:00.45 | 223142 | 250186
11 | 55:35.62 | 5:01.49 | 250187 | 272810
12 | 60:37.36 | 3:59.72 | 272811 | 290807


Track 1

Filename G:\John Scofield - A Moment's Peace (2011) {Emarcy}\01 - Simply Put.wav

Pre-gap length 0:00:02.00

Peak level 99.8 %
Extraction speed 4.6 X
Track quality 100.0 %
Test CRC BCF30207
Copy CRC BCF30207
Track not present in AccurateRip database
Copy OK

Track 2

Filename G:\John Scofield - A Moment's Peace (2011) {Emarcy}\02 - I Will.wav

Peak level 99.8 %
Extraction speed 4.9 X
Track quality 100.0 %
Test CRC 536E3B85
Copy CRC 536E3B85
Track not present in AccurateRip database
Copy OK

Track 3

Filename G:\John Scofield - A Moment's Peace (2011) {Emarcy}\03 - Lawns.wav

Peak level 99.8 %
Extraction speed 5.2 X
Track quality 99.9 %
Test CRC 0A504A65
Copy CRC 0A504A65
Track not present in AccurateRip database
Copy OK

Track 4

Filename G:\John Scofield - A Moment's Peace (2011) {Emarcy}\04 - Throw It Away.wav

Peak level 99.8 %
Extraction speed 6.3 X
Track quality 100.0 %
Test CRC 60C15EDC
Copy CRC 60C15EDC
Track not present in AccurateRip database
Copy OK

Track 5

Filename G:\John Scofield - A Moment's Peace (2011) {Emarcy}\05 - I Want To Talk About You.wav

Peak level 99.8 %
Extraction speed 6.6 X
Track quality 100.0 %
Test CRC C8166D32
Copy CRC C8166D32
Track not present in AccurateRip database
Copy OK

Track 6

Filename G:\John Scofield - A Moment's Peace (2011) {Emarcy}\06 - Gee Baby, Ain't I Good To You.wav

Peak level 99.8 %
Extraction speed 5.0 X
Track quality 99.9 %
Test CRC 27E1CD54
Copy CRC 27E1CD54
Track not present in AccurateRip database
Copy OK

Track 7

Filename G:\John Scofield - A Moment's Peace (2011) {Emarcy}\07 - Johan.wav

Peak level 99.8 %
Extraction speed 5.5 X
Track quality 100.0 %
Test CRC 607A58CD
Copy CRC 607A58CD
Track not present in AccurateRip database
Copy OK

Track 8

Filename G:\John Scofield - A Moment's Peace (2011) {Emarcy}\08 - Mood Returns.wav

Peak level 99.8 %
Extraction speed 6.4 X
Track quality 100.0 %
Test CRC 6EA48E09
Copy CRC 6EA48E09
Track not present in AccurateRip database
Copy OK

Track 9

Filename G:\John Scofield - A Moment's Peace (2011) {Emarcy}\09 - Already September.wav

Peak level 99.8 %
Extraction speed 7.0 X
Track quality 100.0 %
Test CRC CF47651D
Copy CRC CF47651D
Track not present in AccurateRip database
Copy OK

Track 10

Filename G:\John Scofield - A Moment's Peace (2011) {Emarcy}\10 - You Don't Know What Love Is.wav

Peak level 99.8 %
Extraction speed 6.3 X
Track quality 99.9 %
Test CRC 2962CE73
Copy CRC 2962CE73
Track not present in AccurateRip database
Copy OK

Track 11

Filename G:\John Scofield - A Moment's Peace (2011) {Emarcy}\11 - Plain Song.wav

Peak level 99.8 %
Extraction speed 7.4 X
Track quality 100.0 %
Test CRC F15272EF
Copy CRC F15272EF
Track not present in AccurateRip database
Copy OK

Track 12

Filename G:\John Scofield - A Moment's Peace (2011) {Emarcy}\12 - I Loves You, Porgy.wav

Peak level 99.8 %
Extraction speed 7.4 X
Track quality 100.0 %
Test CRC E227923E
Copy CRC E227923E
Track not present in AccurateRip database
Copy OK


None of the tracks are present in the AccurateRip database

No errors occurred

End of status report

==== Log checksum 1C90451B4A1C00DFD14674DD34EC273431A2927050133F1FB2E61B8AD33DE42A ====


––––––––––––––––––––––––––––––––––––––––
Analyzed: John Scofield / A Moment's Peace
––––––––––––––––––––––––––––––––––––––––

DR Peak RMS Duration Track
––––––––––––––––––––––––––––––––––––––––
DR13 0.00 dB -15.18 dB 5:30 01-Simply Put
DR11 -0.01 dB -13.63 dB 3:16 02-I Will
DR12 -0.01 dB -15.04 dB 6:33 03-Lawns
DR13 0.00 dB -15.50 dB 6:06 04-Throw It Away
DR12 -0.01 dB -14.98 dB 7:56 05-I Want To Talk About You
DR11 0.00 dB -14.51 dB 5:01 06-Gee Baby, Ain't I Good To You
DR13 -0.01 dB -15.63 dB 5:11 07-Johan
DR12 0.00 dB -14.01 dB 4:28 08-Mood Returns
DR12 -0.01 dB -14.53 dB 5:34 09-Already September
DR11 0.00 dB -13.03 dB 6:01 10-You Don't Know What Love Is
DR11 -0.01 dB -14.12 dB 5:02 11-Plain Song
DR11 -0.01 dB -14.84 dB 4:00 12-I Loves You, Porgy
––––––––––––––––––––––––––––––––––––––––

Number of tracks: 12
Official DR value: DR12

Samplerate: 44100 Hz
Channels: 2
Bits per sample: 16
Bitrate: 680 kbps
Codec: FLAC
================================================================================

John Scofield - A Moment's Peace (2011) {Emarcy} [Re-Up]
John Scofield - A Moment's Peace (2011) {Emarcy} [Re-Up]
John Scofield - A Moment's Peace (2011) {Emarcy} [Re-Up]