Tags
Language
Tags

John Scofield - Electric Outlet (1984) {Rykodisc Japan}

Posted By:
John Scofield - Electric Outlet (1984) {Rykodisc Japan}

John Scofield - Electric Outlet (1984) {Rykodisc Japan}
EAC 1.2 | FLAC tracks level 8 | Cue+Log+M3U | Full Scans 300dpi | 276MB + 5% Recovery
MP3 CBR 320 Kbps | 111MB + 5% Recovery
Genre: Fusion, Post-Bop, Jazz-Funk
John Scofield - Electric Outlet (1984) {Rykodisc Japan}

Guitarist John Scofield combines with Pete Levin on synthesizer to make this 1984 session both very electric and eclectic. With David Sanborn on alto, Ray Anderson on trombone, and Steve Jordan on drums adding acoustic voices to the mix, the results are as thought-provoking as Scofield's titles. The rock, funk, jazz, and techno elements proliferate and combine, putting populist and outside approaches in a new perspective. There are even touches of Ennio Morricone's film music in the wide-open spaces of "Best Western." While much fusion is about the easy mismatching of elements, Scofield manages to turn his different sources into distinctive and original music.
Track List
01. Just My Luck 5:23
02. Big Break 5:18
03. Best Western 5:44
04. Pick Hits 6:06
05. Filibuster 5:57
06. Thanks Again 4:53
07. King For A Day 2:32
08. Phone Home 5:13

musicians
John Scofield - guitars, DMX, bass
Steve Jordan - drums
David Sanborn - alto sax
Ray Anderson - trombone
Pete Levin - synthesizer

Produced by Steve Swallow and John Scofield


Exact Audio Copy V1.2 from 12. August 2016

EAC extraction logfile from 19. January 2018, 18:26

John Scofield / Electric Outlet

Used drive : HL-DT-STDVDRAM AP70NS50 Adapter: 1 ID: 1

Read mode : Secure
Utilize accurate stream : Yes
Defeat audio cache : Yes
Make use of C2 pointers : No

Read offset correction : 6
Overread into Lead-In and Lead-Out : No
Fill up missing offset samples with silence : Yes
Delete leading and trailing silent blocks : No
Null samples used in CRC calculations : Yes
Used interface : Native Win32 interface for Win NT & 2000
Gap handling : Not detected, thus appended to previous track

Used output format : Internal WAV Routines
Sample format : 44.100 Hz; 16 Bit; Stereo


TOC of the extracted CD

Track | Start | Length | Start sector | End sector
––––––––––––––––––––––––––––-
1 | 0:00.00 | 5:20.74 | 0 | 24073
2 | 5:20.74 | 5:18.49 | 24074 | 47972
3 | 10:39.48 | 5:42.45 | 47973 | 73667
4 | 16:22.18 | 6:05.74 | 73668 | 101116
5 | 22:28.17 | 5:55.36 | 101117 | 127777
6 | 28:23.53 | 4:53.15 | 127778 | 149767
7 | 33:16.68 | 2:31.22 | 149768 | 161114
8 | 35:48.15 | 5:10.59 | 161115 | 184423


Track 1

Filename C:\Users\Stan.Stan-PC\Music\[Lossless]\John Scofield\1984 [2014] Electric Outlet\01 Just My Luck.wav

Peak level 100.0 %
Extraction speed 2.5 X
Track quality 100.0 %
Copy CRC 8E29625E
Accurately ripped (confidence 11) [3E4E4139] (AR v2)
Copy OK

Track 2

Filename C:\Users\Stan.Stan-PC\Music\[Lossless]\John Scofield\1984 [2014] Electric Outlet\02 Big Break.wav

Peak level 100.0 %
Extraction speed 1.3 X
Track quality 100.0 %
Copy CRC DE945ABC
Accurately ripped (confidence 11) [8A654872] (AR v2)
Copy OK

Track 3

Filename C:\Users\Stan.Stan-PC\Music\[Lossless]\John Scofield\1984 [2014] Electric Outlet\03 Best Western.wav

Peak level 100.0 %
Extraction speed 1.4 X
Track quality 99.9 %
Copy CRC BA567E2D
Accurately ripped (confidence 11) [1504C402] (AR v2)
Copy OK

Track 4

Filename C:\Users\Stan.Stan-PC\Music\[Lossless]\John Scofield\1984 [2014] Electric Outlet\04 Pick Hits.wav

Peak level 100.0 %
Extraction speed 1.6 X
Track quality 100.0 %
Copy CRC 80C9D262
Accurately ripped (confidence 11) [AF0E623D] (AR v2)
Copy OK

Track 5

Filename C:\Users\Stan.Stan-PC\Music\[Lossless]\John Scofield\1984 [2014] Electric Outlet\05 Filibuster.wav

Peak level 100.0 %
Extraction speed 1.8 X
Track quality 100.0 %
Copy CRC 102AE360
Accurately ripped (confidence 11) [F490985B] (AR v2)
Copy OK

Track 6

Filename C:\Users\Stan.Stan-PC\Music\[Lossless]\John Scofield\1984 [2014] Electric Outlet\06 Thanks Again.wav

Peak level 100.0 %
Extraction speed 1.8 X
Track quality 100.0 %
Copy CRC 899E79E0
Accurately ripped (confidence 11) [5A1D2349] (AR v2)
Copy OK

Track 7

Filename C:\Users\Stan.Stan-PC\Music\[Lossless]\John Scofield\1984 [2014] Electric Outlet\07 King for a Day.wav

Peak level 100.0 %
Extraction speed 1.7 X
Track quality 100.0 %
Copy CRC 2DC9C014
Accurately ripped (confidence 11) [CDD75EF3] (AR v2)
Copy OK

Track 8

Filename C:\Users\Stan.Stan-PC\Music\[Lossless]\John Scofield\1984 [2014] Electric Outlet\08 Phone Home.wav

Peak level 100.0 %
Extraction speed 1.8 X
Track quality 99.9 %
Copy CRC 1075CA40
Accurately ripped (confidence 11) [C38CAE12] (AR v2)
Copy OK


All tracks accurately ripped

No errors occurred

End of status report

–– CUETools DB Plugin V2.1.6

[CTDB TOCID: yZXGcMG7oHxpaWtnX2z_kVSb_Ho-] found
Submit result: yZXGcMG7oHxpaWtnX2z_kVSb_Ho- has been confirmed
Track | CTDB Status
1 | (28/31) Accurately ripped
2 | (28/31) Accurately ripped
3 | (28/31) Accurately ripped
4 | (28/31) Accurately ripped
5 | (28/31) Accurately ripped
6 | (28/31) Accurately ripped
7 | (28/31) Accurately ripped
8 | (28/31) Accurately ripped

John Scofield - Electric Outlet (1984) {Rykodisc Japan}
John Scofield - Electric Outlet (1984) {Rykodisc Japan}


Thanks to the original ripper