Tags
Language
Tags

John Scofield - Loud Jazz (1988) [Re-Up]

Posted By: tiburon
John Scofield - Loud Jazz (1988) [Re-Up]

John Scofield - Loud Jazz (1988)
EAC 1.0b3 | FLAC tracks level 8 | Cue+Log+M3U+MD5 | Full Scans 300dpi | 328MB + 5% Recovery
Genre: Loud Jazz, Fusion, Jazz-Funk
John Scofield - Loud Jazz (1988) [Re-Up]

There are "loud" moments on this studio set, but the title cut's name is more a humorous attempt to describe the John Scofield Quartet's music than an accurate depiction of their style. The leader/guitarist, who sounds typically distinctive, welcomes guest keyboardist George Duke to five of his nine originals. Scofield's regular group of the era consisted of keyboardist Robert Aries, electric bassist Gary Grainger and drummer Dennis Chambers and they are also joined here by percussionist Don Alias. The music (which includes such numbers as "Tell You What," "Dirty Rice," "Wabash" and "Spy Vs. Spy") has few memorable melodies but plenty of dynamic playing by Scofield, who at this point was growing as a major stylist from album to album. A strong effort.
Track List
01. Tell You What 3:46
02. Dance Me Home 5:55
03. Signature Of Venus 4:42
04. Dirty Rice 6:34
05. Did It 5:38
06. Wabash 4:33
07. Loud Jazz 6:06
08. Otay 6:14
09. True Love Scofield 3:54
10. Igetthepicture 4:07
11. Spy Vs. Spy Scofield 6:16

All compositions by John Scofield except Otay by Scofield, Aries, Chambers and Grainger

musicians
John Scofield - guitar
George Duke - keyboard solos
Dennis Chambers - drums
Gary Grainger - bass
Don Alias - percussion
Robert Aries - keyboards

Produced by Steve Swallow


Exact Audio Copy V1.0 beta 3 from 29. August 2011

EAC extraction logfile from 20. October 2013, 19:02

John Scofield / Loud Jazz

Used drive : HL-DT-STDVDRAM GH20NS10 Adapter: 2 ID: 1

Read mode : Secure
Utilize accurate stream : Yes
Defeat audio cache : Yes
Make use of C2 pointers : No

Read offset correction : 667
Overread into Lead-In and Lead-Out : No
Fill up missing offset samples with silence : Yes
Delete leading and trailing silent blocks : No
Null samples used in CRC calculations : Yes
Used interface : Native Win32 interface for Win NT & 2000
Gap handling : Appended to previous track

Used output format : User Defined Encoder
Selected bitrate : 1024 kBit/s
Quality : High
Add ID3 tag : No
Command line compressor : C:\Program Files\Exact Audio Copy\Flac\flac.exe
Additional command line options : -8 -V -T "ARTIST=%artist%" -T "TITLE=%title%" -T "ALBUM=%albumtitle%" -T "DATE=%year%" -T "TRACKNUMBER=%tracknr%" -T "TOTALTRACKS=%numtracks%" -T "GENRE=%genre%" -T "ALBUMARTIST=%albumartist%" -T "ALBUM ARTIST=%albumartist%" -T "COMMENT=EAC Secure Mode, Test & Copy, AccurateRip, FLAC -8" %source%


TOC of the extracted CD

Track | Start | Length | Start sector | End sector
––––––––––––––––––––––––––––-
1 | 0:00.00 | 3:48.20 | 0 | 17119
2 | 3:48.20 | 5:55.43 | 17120 | 43787
3 | 9:43.63 | 4:45.30 | 43788 | 65192
4 | 14:29.18 | 6:36.50 | 65193 | 94942
5 | 21:05.68 | 4:39.70 | 94943 | 115937
6 | 25:45.63 | 4:35.00 | 115938 | 136562
7 | 30:20.63 | 6:08.67 | 136563 | 164229
8 | 36:29.55 | 6:17.35 | 164230 | 192539
9 | 42:47.15 | 3:56.70 | 192540 | 210309
10 | 46:44.10 | 4:08.68 | 210310 | 228977
11 | 50:53.03 | 6:16.10 | 228978 | 257187


Track 1

Filename D:\John Scofield - Loud Jazz (1988) [FLAC]\01 - Tell You Want.wav

Pre-gap length 0:00:02.00

Peak level 72.2 %
Extraction speed 4.2 X
Track quality 100.0 %
Test CRC 1CE04AEC
Copy CRC 1CE04AEC
Accurately ripped (confidence 1) [ED3A78EB] (AR v1)
Copy OK

Track 2

Filename D:\John Scofield - Loud Jazz (1988) [FLAC]\02 - Dance Me Home.wav

Peak level 70.4 %
Extraction speed 4.2 X
Track quality 99.9 %
Test CRC A485C126
Copy CRC A485C126
Accurately ripped (confidence 1) [4B3D25AE] (AR v1)
Copy OK

Track 3

Filename D:\John Scofield - Loud Jazz (1988) [FLAC]\03 - Signature Of Venus.wav

Peak level 73.6 %
Extraction speed 5.1 X
Track quality 100.0 %
Test CRC 354831AD
Copy CRC 354831AD
Accurately ripped (confidence 1) [BA0D21EA] (AR v1)
Copy OK

Track 4

Filename D:\John Scofield - Loud Jazz (1988) [FLAC]\04 - Dirty Rice.wav

Peak level 75.8 %
Extraction speed 5.3 X
Track quality 100.0 %
Test CRC 042701A9
Copy CRC 042701A9
Accurately ripped (confidence 1) [922E7ED8] (AR v1)
Copy OK

Track 5

Filename D:\John Scofield - Loud Jazz (1988) [FLAC]\05 - Did It.wav

Peak level 57.6 %
Extraction speed 4.2 X
Track quality 100.0 %
Test CRC BBB3DBEF
Copy CRC BBB3DBEF
Accurately ripped (confidence 1) [266896E9] (AR v1)
Copy OK

Track 6

Filename D:\John Scofield - Loud Jazz (1988) [FLAC]\06 - Wabash.wav

Peak level 71.3 %
Extraction speed 3.8 X
Track quality 100.0 %
Test CRC F1B38C84
Copy CRC F1B38C84
Accurately ripped (confidence 1) [D9F89BE7] (AR v1)
Copy OK

Track 7

Filename D:\John Scofield - Loud Jazz (1988) [FLAC]\07 - Loud Jazz.wav

Peak level 71.3 %
Extraction speed 4.8 X
Track quality 100.0 %
Test CRC EB7C3F3A
Copy CRC EB7C3F3A
Accurately ripped (confidence 1) [3A9C8E65] (AR v1)
Copy OK

Track 8

Filename D:\John Scofield - Loud Jazz (1988) [FLAC]\08 - Otay.wav

Peak level 77.5 %
Extraction speed 4.5 X
Track quality 99.9 %
Test CRC 806B8314
Copy CRC 806B8314
Accurately ripped (confidence 1) [AC420F46] (AR v1)
Copy OK

Track 9

Filename D:\John Scofield - Loud Jazz (1988) [FLAC]\09 - True Love.wav

Peak level 48.6 %
Extraction speed 3.8 X
Track quality 100.0 %
Test CRC 2FA3E778
Copy CRC 2FA3E778
Accurately ripped (confidence 1) [EA362275] (AR v1)
Copy OK

Track 10

Filename D:\John Scofield - Loud Jazz (1988) [FLAC]\10 - Igetthepicture.wav

Peak level 59.0 %
Extraction speed 4.5 X
Track quality 100.0 %
Test CRC 3CEC1666
Copy CRC 3CEC1666
Accurately ripped (confidence 1) [EB3C3B14] (AR v1)
Copy OK

Track 11

Filename D:\John Scofield - Loud Jazz (1988) [FLAC]\11 - Spy Vs. Spy.wav

Peak level 56.6 %
Extraction speed 5.5 X
Track quality 100.0 %
Test CRC F61DAFED
Copy CRC F61DAFED
Accurately ripped (confidence 1) [B543B8A8] (AR v1)
Copy OK


All tracks accurately ripped

No errors occurred

End of status report

==== Log checksum 277530AC1F1DEFF87FED2FAE26BA1DF0E7AA24828C3F32BB1FFA0CCA095CF291 ====


––––––––––––––––––––––––––––––––––––––––
Analyzed: John Scofield / Loud Jazz
––––––––––––––––––––––––––––––––––––––––

DR Peak RMS Duration Track
––––––––––––––––––––––––––––––––––––––––
DR14 -2.82 dB -18.46 dB 3:48 01-Tell You Want
DR13 -3.04 dB -18.03 dB 5:56 02-Dance Me Home
DR13 -2.66 dB -17.44 dB 4:45 03-Signature Of Venus
DR14 -2.40 dB -19.22 dB 6:37 04-Dirty Rice
DR12 -4.78 dB -19.10 dB 4:40 05-Did It
DR13 -2.93 dB -18.17 dB 4:35 06-Wabash
DR13 -2.93 dB -19.28 dB 6:09 07-Loud Jazz
DR15 -2.20 dB -20.01 dB 6:17 08-Otay
DR12 -6.26 dB -21.29 dB 3:57 09-True Love
DR13 -4.57 dB -19.16 dB 4:09 10-Igetthepicture
DR13 -4.94 dB -20.69 dB 6:16 11-Spy Vs. Spy
––––––––––––––––––––––––––––––––––––––––

Number of tracks: 11
Official DR value: DR13

Samplerate: 44100 Hz
Channels: 2
Bits per sample: 16
Bitrate: 647 kbps
Codec: FLAC
================================================================================

John Scofield - Loud Jazz (1988) [Re-Up]
John Scofield - Loud Jazz (1988) [Re-Up]
John Scofield - Loud Jazz (1988) [Re-Up]