Tags
Language
Tags

John Scofield - Still Warm (1986) {Gramavision}

Posted By: tiburon
John Scofield - Still Warm (1986) {Gramavision}

John Scofield - Still Warm (1986) {Gramavision}
EAC 0.99pb4 | FLAC tracks level 8 | Cue+Log+M3U | Full Scans 600dpi | 256MB + 5% Recovery
Genre: Top Fusion
John Scofield - Still Warm (1986) {Gramavision}

One of John Scofield's finest mid-1980s outings as a leader, STILL WARM finds the revered jazz guitarist settling into a set of funk-tinged fusion. The tight yet adventurous rhythm section of bassist Darryl Jones and drummer Omar Hakim allows Scofield to unfurl his impressively agile six-string lines, which can stray into rock and blues territory. Keyboardist Don Grolnick adds unexpected, sometimes downright strange textures to the compositions, reining in his quirky flourishes to wonderful effect on the delicately beautiful title track.
Track List
1. Techno
2. Still Warm
3. High And Mighty
4. Protocol
5. Rule Of Thumb
6. Picks And Pans
7. Gil B643

musicians
John Scofield - guitar
Don Grolnick - keyboards
Darryl Jones - bass
Omar Hakim - drums

Produced by Steve Swallow


Exact Audio Copy V0.99 prebeta 4 from 23. January 2008

EAC extraction logfile from 17. March 2008, 20:54

John Scofield / Still Warm

Used drive : HL-DT-STDVD-ROM GDR8163B Adapter: 1 ID: 1

Read mode : Secure
Utilize accurate stream : Yes
Defeat audio cache : Yes
Make use of C2 pointers : No

Read offset correction : 102
Overread into Lead-In and Lead-Out : No
Fill up missing offset samples with silence : Yes
Delete leading and trailing silent blocks : No
Null samples used in CRC calculations : Yes
Used interface : Installed external ASPI interface
Gap handling : Appended to previous track

Used output format : User Defined Encoder
Selected bitrate : 768 kBit/s
Quality : High
Add ID3 tag : No
Command line compressor : C:\Program Files\Exact Audio Copy\FLAC\FLAC.EXE
Additional command line options : -8 -V -T "ARTIST=%a" -T "TITLE=%t" -T "ALBUM=%g" -T "DATE=%y" -T "TRACKNUMBER=%n" -T "GENRE=%m" -T "COMMENT=EAC FLAC -8" %s


TOC of the extracted CD

Track | Start | Length | Start sector | End sector
––––––––––––––––––––––––––––-
1 | 0:00.33 | 7:30.57 | 33 | 33839
2 | 7:31.15 | 6:02.50 | 33840 | 61039
3 | 13:33.65 | 5:17.23 | 61040 | 84837
4 | 18:51.13 | 3:44.27 | 84838 | 101664
5 | 22:35.40 | 7:24.68 | 101665 | 135032
6 | 30:00.33 | 5:26.07 | 135033 | 159489
7 | 35:26.40 | 6:42.63 | 159490 | 189702


Track 1

Filename D:\Jazz\John Scofield - Still Warm (1990) [FLAC]\01 - Techno.wav

Pre-gap length 0:00:02.33

Peak level 87.5 %
Track quality 100.0 %
Test CRC 7B68B22E
Copy CRC 7B68B22E
Accurately ripped (confidence 2) [913C14ED]
Copy OK

Track 2

Filename D:\Jazz\John Scofield - Still Warm (1990) [FLAC]\02 - Still Warm.wav

Pre-gap length 0:00:04.37

Peak level 100.0 %
Track quality 100.0 %
Test CRC F0766CB1
Copy CRC F0766CB1
Accurately ripped (confidence 2) [CC9279A0]
Copy OK

Track 3

Filename D:\Jazz\John Scofield - Still Warm (1990) [FLAC]\03 - High and Mighty.wav

Pre-gap length 0:00:01.50

Peak level 100.0 %
Track quality 100.0 %
Test CRC 3A7DAD15
Copy CRC 3A7DAD15
Accurately ripped (confidence 2) [0FEBEF25]
Copy OK

Track 4

Filename D:\Jazz\John Scofield - Still Warm (1990) [FLAC]\04 - Protocol.wav

Pre-gap length 0:00:02.23

Peak level 100.0 %
Track quality 100.0 %
Test CRC 13E577AD
Copy CRC 13E577AD
Accurately ripped (confidence 2) [D27296A0]
Copy OK

Track 5

Filename D:\Jazz\John Scofield - Still Warm (1990) [FLAC]\05 - Rule of Thumb.wav

Peak level 84.6 %
Track quality 100.0 %
Test CRC 6B2D4A9F
Copy CRC 6B2D4A9F
Accurately ripped (confidence 2) [7348FF59]
Copy OK

Track 6

Filename D:\Jazz\John Scofield - Still Warm (1990) [FLAC]\06 - Picks and Pans.wav

Pre-gap length 0:00:01.68

Peak level 97.7 %
Track quality 99.9 %
Test CRC F84481A1
Copy CRC F84481A1
Accurately ripped (confidence 2) [380EFB05]
Copy OK

Track 7

Filename D:\Jazz\John Scofield - Still Warm (1990) [FLAC]\07 - Gil B643.wav

Pre-gap length 0:00:01.37

Peak level 97.7 %
Track quality 100.0 %
Test CRC A3DA8993
Copy CRC A3DA8993
Accurately ripped (confidence 2) [01EEC2E9]
Copy OK


All tracks accurately ripped

No errors occurred

End of status report


––––––––––––––––––––––––––––––––––––––––
Analyzed: John Scofield / Still Warm
––––––––––––––––––––––––––––––––––––––––

DR Peak RMS Duration Track
––––––––––––––––––––––––––––––––––––––––
DR15 -1.15 dB -19.93 dB 7:31 01-Techno
DR15 0.00 dB -18.58 dB 6:03 02-Still Warm
DR15 0.00 dB -17.52 dB 5:17 03-High and Mighty
DR14 0.00 dB -15.48 dB 3:44 04-Protocol
DR13 -1.45 dB -16.89 dB 7:25 05-Rule of Thumb
DR14 -0.20 dB -16.82 dB 5:26 06-Picks and Pans
DR16 -0.20 dB -18.55 dB 6:43 07-Gil B643
––––––––––––––––––––––––––––––––––––––––

Number of tracks: 7
Official DR value: DR14

Samplerate: 44100 Hz
Channels: 2
Bits per sample: 16
Bitrate: 724 kbps
Codec: FLAC
================================================================================

John Scofield - Still Warm (1986) {Gramavision}
John Scofield - Still Warm (1986) {Gramavision}
John Scofield - Still Warm (1986) {Gramavision}


Thanks to the original ripper