Subcategories
Tags
Language
Tags

John Surman - Withholding Pattern (1985) {ECM 1295}

Posted By: tiburon
John Surman - Withholding Pattern (1985) {ECM 1295}

John Surman - Withholding Pattern (1985) {ECM 1295}
X Lossless Decoder | FLAC tracks level 8 | Cue+Log+M3U | Full Scans 300dpi | 178MB + 5% Recovery
MP3 CBR 320 Kbps | 106MB + 5% Recovery
Genre: Jazz
John Surman - Withholding Pattern (1985) {ECM 1295}

A saxophone workout from '85 by outstanding British player John Surman. While solo sax can be extremely tiring, Surman mixes enough elements of rock, free, blues, and hard bop to keep the songs varied. His aggressive style, especially on baritone, keeps the energy level high.
Track List
01. Doxology 6:02
02. Changes Of Season 9:26
03. All Cat's Whiskers And Bee's Knees 2:54
04. Holding Pattern I 4:54
05. Skating On Thin Ice 4:48
06. The Snooper 1:55
07. Wildcat Blues 3:48
08. Holding Pattern II 8:17

John Surman - baritone and soprano saxophones, bass clarinet, recorder, piano, synthesizer

Produced by Manfred Eicher


X Lossless Decoder version 20111113 (137.1)

XLD extraction logfile from 2011-11-23 00:44:21 +0000

John Surman / Withholding Pattern

Used drive : MATSHITA DVD-R UJ-898 (revision HC10)

Ripper mode : XLD Secure Ripper
Disable audio cache : OK for the drive with a cache less than 1375KiB
Make use of C2 pointers : NO
Read offset correction : 102
Max retry count : 100
Gap status : Analyzed, Appended

TOC of the extracted CD
Track | Start | Length | Start sector | End sector
––––––––––––––––––––––––––––-
1 | 00:00:33 | 06:02:40 | 33 | 27222
2 | 06:02:73 | 09:30:50 | 27223 | 70022
3 | 15:33:48 | 02:59:05 | 70023 | 83452
4 | 18:32:53 | 05:02:55 | 83453 | 106157
5 | 23:35:33 | 04:53:27 | 106158 | 128159
6 | 28:28:60 | 01:59:65 | 128160 | 137149
7 | 30:28:50 | 03:48:10 | 137150 | 154259
8 | 34:16:60 | 08:17:65 | 154260 | 191599

List of alternate offset correction values
# | Absolute | Relative | Confidence
–––––––––––––––––––––
1 | -562 | -664 | 2

AccurateRip Summary
Track 01 : OK (confidence 3)
Track 02 : OK (confidence 3)
Track 03 : OK (confidence 3)
Track 04 : OK (confidence 3)
Track 05 : OK (confidence 3)
Track 06 : OK (confidence 3)
Track 07 : OK (confidence 3)
Track 08 : OK (confidence 3)
->All tracks accurately ripped.

All Tracks
Album gain : 0.85 dB
Peak : 0.783264
Statistics
Read error : 0
Jitter error (maybe fixed) : 0
Retry sector count : 0
Damaged sector count : 0

Track 01
Filename : /Volumes/Media External/RIP/John Surman - Withholding Pattern (1985) [ECM 1295]/01 John Surman - Doxology.flac
Pre-gap length : 00:02:33

Track gain : 0.74 dB
Peak : 0.783264
CRC32 hash (test run) : 7B109698
CRC32 hash : 7B109698
CRC32 hash (skip zero) : 4C9808D0
AccurateRip signature : 155B1E99
->Accurately ripped! (confidence 3)
Statistics
Read error : 0
Jitter error (maybe fixed) : 0
Retry sector count : 0
Damaged sector count : 0

Track 02
Filename : /Volumes/Media External/RIP/John Surman - Withholding Pattern (1985) [ECM 1295]/02 John Surman - Changes of Season.flac

Track gain : 0.45 dB
Peak : 0.621094
CRC32 hash (test run) : 3DB84937
CRC32 hash : 3DB84937
CRC32 hash (skip zero) : 1BA080D6
AccurateRip signature : 79872065
->Accurately ripped! (confidence 3)
Statistics
Read error : 0
Jitter error (maybe fixed) : 0
Retry sector count : 0
Damaged sector count : 0

Track 03
Filename : /Volumes/Media External/RIP/John Surman - Withholding Pattern (1985) [ECM 1295]/03 John Surman - All Cat's Whiskers and Bee's Knees.flac
Pre-gap length : 00:03:58

Track gain : 1.57 dB
Peak : 0.714752
CRC32 hash (test run) : 79692E15
CRC32 hash : 79692E15
CRC32 hash (skip zero) : F9A0544B
AccurateRip signature : 08C40EFF
->Accurately ripped! (confidence 3)
Statistics
Read error : 0
Jitter error (maybe fixed) : 0
Retry sector count : 0
Damaged sector count : 0

Track 04
Filename : /Volumes/Media External/RIP/John Surman - Withholding Pattern (1985) [ECM 1295]/04 John Surman - Holding Pattern 1.flac
Pre-gap length : 00:04:28

Track gain : 1.10 dB
Peak : 0.677612
CRC32 hash (test run) : CE90DFE5
CRC32 hash : CE90DFE5
CRC32 hash (skip zero) : 6C3E45BB
AccurateRip signature : 1F9D63D4
->Accurately ripped! (confidence 3)
Statistics
Read error : 0
Jitter error (maybe fixed) : 0
Retry sector count : 0
Damaged sector count : 0

Track 05
Filename : /Volumes/Media External/RIP/John Surman - Withholding Pattern (1985) [ECM 1295]/05 John Surman - Skating on Thin Ice.flac
Pre-gap length : 00:07:68

Track gain : 0.21 dB
Peak : 0.623535
CRC32 hash (test run) : 1FBC3FE6
CRC32 hash : 1FBC3FE6
CRC32 hash (skip zero) : 12193C09
AccurateRip signature : 87C9F20F
->Accurately ripped! (confidence 3)
Statistics
Read error : 0
Jitter error (maybe fixed) : 0
Retry sector count : 0
Damaged sector count : 0

Track 06
Filename : /Volumes/Media External/RIP/John Surman - Withholding Pattern (1985) [ECM 1295]/06 John Surman - The Snooper.flac
Pre-gap length : 00:04:67

Track gain : 4.08 dB
Peak : 0.459839
CRC32 hash (test run) : E3A34D46
CRC32 hash : E3A34D46
CRC32 hash (skip zero) : B8CBF939
AccurateRip signature : A7462522
->Accurately ripped! (confidence 3)
Statistics
Read error : 0
Jitter error (maybe fixed) : 0
Retry sector count : 0
Damaged sector count : 0

Track 07
Filename : /Volumes/Media External/RIP/John Surman - Withholding Pattern (1985) [ECM 1295]/07 John Surman - Wildcat Blues.flac
Pre-gap length : 00:04:12

Track gain : 0.21 dB
Peak : 0.535156
CRC32 hash (test run) : 5FF80CEC
CRC32 hash : 5FF80CEC
CRC32 hash (skip zero) : 4A87F58E
AccurateRip signature : 513DB118
->Accurately ripped! (confidence 3)
Statistics
Read error : 0
Jitter error (maybe fixed) : 0
Retry sector count : 0
Damaged sector count : 0

Track 08
Filename : /Volumes/Media External/RIP/John Surman - Withholding Pattern (1985) [ECM 1295]/08 John Surman - Holding Pattern 2.flac

Track gain : 1.87 dB
Peak : 0.614349
CRC32 hash (test run) : FB394EE4
CRC32 hash : FB394EE4
CRC32 hash (skip zero) : 89740A9E
AccurateRip signature : EF619872
->Accurately ripped! (confidence 3)
Statistics
Read error : 0
Jitter error (maybe fixed) : 0
Retry sector count : 0
Damaged sector count : 0

No errors occurred

End of status report


––––––––––––––––––––––––––––––––––––––––
Analyzed: John Surman / Withholding Pattern
––––––––––––––––––––––––––––––––––––––––

DR Peak RMS Duration Track
––––––––––––––––––––––––––––––––––––––––
DR15 -2.12 dB -20.80 dB 6:03 01-Doxology
DR12 -4.14 dB -20.46 dB 9:31 02-Changes Of Season
DR15 -2.92 dB -23.34 dB 2:59 03-All Cat's Whiskers And Bee's Knees
DR10 -3.38 dB -17.25 dB 5:03 04-Holding Pattern I
DR11 -4.10 dB -19.40 dB 4:53 05-Skating On Thin Ice
DR12 -6.75 dB -26.07 dB 2:00 06-The Snooper
DR11 -5.43 dB -20.60 dB 3:48 07-Wildcat Blues
DR13 -4.23 dB -22.56 dB 8:18 08-Holding Pattern II
––––––––––––––––––––––––––––––––––––––––

Number of tracks: 8
Official DR value: DR12

Samplerate: 44100 Hz
Channels: 2
Bits per sample: 16
Bitrate: 537 kbps
Codec: FLAC
================================================================================

John Surman - Withholding Pattern (1985) {ECM 1295}
John Surman - Withholding Pattern (1985) {ECM 1295}
John Surman - Withholding Pattern (1985) {ECM 1295}


Thanks to the original ripper