Subcategories

Jon Bon Jovi - Destination Anywhere (1997) Japanese Edition, SHM-CD 2013

Posted By: Designol
Jon Bon Jovi - Destination Anywhere (1997) Japanese Edition, SHM-CD 2013

Jon Bon Jovi - Destination Anywhere (1997) Japanese Edition, SHM-CD 2013
EAC | FLAC | Image (Cue&Log) ~ 503 Mb (incl 5%) | Mp3 (CBR320) ~ 164 Mb (incl 5%) | Scans ~ 117 Mb
Genre: Rock, Pop/Rock | Label: Mercury/Island/Universal | # UICY-20460 | Time: 01:08:13

Jon Bon Jovi's first official solo album, Destination Anywhere (apparently Blaze of Glory doesn't count because it was a soundtrack) finds the hard rocker attempting to simultaneously make his signature sound more mature and more contemporary. Producer Stephen Lironi tones down the sample-driven rhythms that characterized his work with Black Grape, giving Bon Jovi a laid-back and modern musical bed. Of course, the singer chooses to write melodies and lyrics very similar to those of his full-time band, only less bombastic. And that's the key to Destination Anywhere – it really couldn't have been made by the band, because there are too many subtle sonics and melodies for the group. So, in a sense, it's a breakthrough for Bon Jovi, because it is the first time he sounds like he's come to terms with adulthood. That doesn't mean Destination Anywhere is a complete success – it, like his other records, is hampered by filler – but none of his contemporaries were able to age this well, and the record is a fine example of late-'90s mainstream pop.

Review by Stephen Thomas Erlewine, Allmusic.com

Jon Bon Jovi - Destination Anywhere (1997) Japanese Edition, SHM-CD 2013



Tracklist:

01. Queen Of New Orleans (04:30)
02. Janie, Don't Take Your Love To Town (05:18)
03. Midnight In Chelsea (04:58)
04. Ugly (03:23)
05. Staring At Your Window With A Suitcase In My Hand (04:26)
06. Every Word Was A Piece Of My Heart (05:16)
07. It's Just Me (06:43)
08. Destination Anywhere (04:56)
09. Learning How To Fall (04:03)
10. Naked (04:42)
11. Little City (04:57)
12. August 7, 4:15 (04:59)
13. Cold Hard Heart [demo] (04:44)
14. I Talk To Jesus [demo] (05:12)


Exact Audio Copy V1.3 from 2. September 2016

Отчёт EAC об извлечении, выполненном 8. декабря 2016, 18:33

Jon Bon Jovi / Destination Anywhere

Дисковод: Optiarc BD RW BD-5750H Adapter: 1 ID: 0

Режим чтения : Достоверность
Использование точного потока : Да
Отключение кэша аудио : Да
Использование указателей C2 : Нет

Коррекция смещения при чтении : 48
Способность читать области Lead-in и Lead-out : Нет
Заполнение пропущенных сэмплов тишиной : Да
Удаление блоков с тишиной в начале и конце : Нет
При вычислениях CRC использовались нулевые сэмплы : Да
Интерфейс : Встроенный Win32-интерфейс для Win NT/2000

Выходной формат : Пользовательский кодировщик
Выбранный битрейт : 1024 kBit/s
Качество : Высокий
Добавление ID3-тега : Нет
Утилита сжатия : C:\Program Files (x86)\Exact Audio Copy\FLAC\FLAC.EXE
Дополнительные параметры : -V -8 -T "Date=%year%" -T "Genre=%genre%" %source%


TOC извлечённого CD

Трек | Старт | Длительность | Начальный сектор | Конечный сектор
––––––––––––––––––––––––––––––––––-
1 | 0:00.00 | 4:30.42 | 0 | 20291
2 | 4:30.42 | 5:18.05 | 20292 | 44146
3 | 9:48.47 | 4:58.28 | 44147 | 66524
4 | 14:47.00 | 3:23.72 | 66525 | 81821
5 | 18:10.72 | 4:26.00 | 81822 | 101771
6 | 22:36.72 | 5:16.08 | 101772 | 125479
7 | 27:53.05 | 6:43.72 | 125480 | 155776
8 | 34:37.02 | 4:56.15 | 155777 | 177991
9 | 39:33.17 | 4:03.38 | 177992 | 196254
10 | 43:36.55 | 4:42.22 | 196255 | 217426
11 | 48:19.02 | 4:57.50 | 217427 | 239751
12 | 53:16.52 | 4:59.25 | 239752 | 262201
13 | 58:16.02 | 4:44.73 | 262202 | 283574
14 | 63:01.00 | 5:12.10 | 283575 | 306984


Характеристики диапазона извлечения и сообщения об ошибках

Выбранный диапазон

Имя файла D:\MUSIC-lossless\Bon_Jovi_Discography_Содержание&Оформление_раздачи\BJ_Discography\06 Jon Bon Jovi solo\1997-Destination Anywhere\Jon Bon Jovi - Destination Anywhere.wav

Пиковый уровень 100.0 %
Скорость извлечения 7.0 X
Качество диапазона 100.0 %
CRC теста 5734E361
CRC копии 5734E361
Копирование… OK

Ошибок не произошло


AccurateRip: сводка

Трек 1 : извлечено точно (доверие 1) [43DFB55B] (AR v2)
Трек 2 : извлечено точно (доверие 1) [3B0654A8] (AR v2)
Трек 3 : извлечено точно (доверие 1) [D4EBE840] (AR v2)
Трек 4 : извлечено точно (доверие 1) [DCD0AF23] (AR v2)
Трек 5 : извлечено точно (доверие 1) [942246B7] (AR v2)
Трек 6 : извлечено точно (доверие 1) [2BF61982] (AR v2)
Трек 7 : извлечено точно (доверие 1) [9004F4B0] (AR v2)
Трек 8 : извлечено точно (доверие 1) [33FDB9C7] (AR v2)
Трек 9 : извлечено точно (доверие 1) [331F81A0] (AR v2)
Трек 10 : извлечено точно (доверие 1) [694DB22E] (AR v2)
Трек 11 : извлечено точно (доверие 1) [7E6AEBCC] (AR v2)
Трек 12 : извлечено точно (доверие 1) [AD0514DA] (AR v2)
Трек 13 : извлечено точно (доверие 1) [E30F41AC] (AR v2)
Трек 14 : извлечено точно (доверие 1) [17C2007E] (AR v2)

Все треки извлечены точно

Конец отчёта

–– CUETools DB Plugin V2.1.6

[CTDB TOCID: Lz3biWhFOhA7EWXdDtlIz8Biwdw-] found
Submit result: Lz3biWhFOhA7EWXdDtlIz8Biwdw- has been confirmed
Track | CTDB Status
1 | (21/21) Accurately ripped
2 | (21/21) Accurately ripped
3 | (21/21) Accurately ripped
4 | (21/21) Accurately ripped
5 | (21/21) Accurately ripped
6 | (21/21) Accurately ripped
7 | (21/21) Accurately ripped
8 | (21/21) Accurately ripped
9 | (21/21) Accurately ripped
10 | (21/21) Accurately ripped
11 | (21/21) Accurately ripped
12 | (21/21) Accurately ripped
13 | (21/21) Accurately ripped
14 | (21/21) Accurately ripped


==== Контрольная сумма отчёта D41E4E143DE503968A152179F5D764BA9B93060F7272F5F3CB8944B01E5EBE85 ====

foobar2000 1.3.7 / Dynamic Range Meter 1.1.1
log date: 2016-12-08 18:41:09

––––––––––––––––––––––––––––––––––––––––
Analyzed: Jon Bon Jovi / Destination Anywhere
––––––––––––––––––––––––––––––––––––––––

DR Peak RMS Duration Track
––––––––––––––––––––––––––––––––––––––––
DR8 0.00 dB -9.16 dB 4:31 01-Queen Of New Orleans
DR7 0.00 dB -8.67 dB 5:18 02-Janie, Don't Take Your Love To Town
DR7 0.00 dB -8.79 dB 4:58 03-Midnight In Chelsea
DR7 0.00 dB -8.56 dB 3:24 04-Ugly
DR8 0.00 dB -9.26 dB 4:26 05-Staring At Your Window With A Suitcase In My Hand
DR7 0.00 dB -8.76 dB 5:16 06-Every Word Was A Piece Of My Heart
DR8 0.00 dB -9.48 dB 6:44 07-It's Just Me
DR7 0.00 dB -8.47 dB 4:56 08-Destination Anywhere
DR9 -0.71 dB -10.58 dB 4:04 09-Learning How To Fall
DR7 0.00 dB -8.45 dB 4:42 10-Naked
DR9 0.00 dB -10.17 dB 4:58 11-Little City
DR7 0.00 dB -7.85 dB 4:59 12-August 7, 4:15
DR7 0.00 dB -9.93 dB 4:45 13-Cold Hard Heart [demo]
DR8 0.00 dB -9.06 dB 5:12 14-I Talk To Jesus [demo]
––––––––––––––––––––––––––––––––––––––––

Number of tracks: 14
Official DR value: DR8

Samplerate: 44100 Hz
Channels: 2
Bits per sample: 16
Bitrate: 983 kbps
Codec: FLAC
================================================================================

Jon Bon Jovi - Destination Anywhere (1997) Japanese Edition, SHM-CD 2013

Jon Bon Jovi - Destination Anywhere (1997) Japanese Edition, SHM-CD 2013

All thanks to original releaser - unclevasia

More interesting music in My Blog