Tags
Language
Tags

Jonas Kaufmann, Jochen Rieder, Mozarteumorchester Salzburg - It's Christmas! (2020)

Posted By: ArlegZ
Jonas Kaufmann, Jochen Rieder, Mozarteumorchester Salzburg - It's Christmas! (2020)

Jonas Kaufmann, Jochen Rieder, Mozarteumorchester Salzburg - It's Christmas! (2020)
EAC | FLAC | Image (Cue & Log) ~ 588 Mb | Total time: 120:02 | Scans included
Classical | Label: Sony Classical | 19439786762 | Recorded: 2019, 2020

In a Christmas album that is a gift itself, Jonas Kaufmann the most acclaimed operatic tenor of the age echoes his own holiday memories and joys with It s Christmas!, celebrating the most festive time of the year with a unique selection of beloved songs and carols. This uniquely rich and diverse holiday album features 40 favorites that reflect the many facets of Christmas, from ancient Christian hymns to contemporary pop classics.

Performer:
Jonas Kaufmann, tenor
St. Florianer Sängerknaben (CD1: 1, 5, 14, 16; CD2: 4)
Bachchor Salzburg (CD1: 5, 14, 16; CD2: 4)
Mozarteumorchester Salzburg
Jochen Rieder, conductor (CD1: 1-16, 18, 19, 21, 23, 24; CD2: 1-5, 7-11)
Florian Pedarnig, harp (CD1: 17, 20, 22, 25)
Cologne Studio Big Band
Wieland Reissmann, conductor (CD2: 6, 12-16)

Track List:
CD1:
Traditional
01. Engel haben Himmelslieder / Gloria in excelsis Deo
02. Süßer die Glocken nie klingen
Michael Praetorius
03. In dulci jubilo
Traditional
04. Kommet, ihr Hirten
Georg Friedrich Händel
05. Tochter Zion
Christoph von Schmid
06. Ihr Kinderlein, kommet
Friedrich Silcher
07. Alle Jahre wieder
Traditional
08. Was soll das bedeuten?
09. Vom Himmel hoch, ihr Englein, kommt!
Josef Annegarn
10. Lasst uns froh und munter sein
Traditional
11. Leise rieselt der Schnee
Carl Gottlieb Hering
12. Morgen, Kinder, wird's was geben
Michael Praetorius
13. Es ist ein Ros entsprungen
Traditional
14. Macht hoch die Tür
Johann Sebastian Bach
15. Ich steh an deiner Krippen hier
Traditional
16. O du fröhliche
17. Still, still, still
18. O Heiland, reiß die Himmel auf
19. Kling, Glöckchen, klingelingeling
20. Es wird scho glei dumpa
21. Maria durch ein Dornwald ging
Franz Xaver Rambold
22. Im Woid is so staad
Martin Luther
23. Vom Himmel hoch, da komm ich her
Traditional
24. O Tannenbaum
Franz Xaver Gruber
25. Stille Nacht
Traditional
26. Still, still, still
CD2:
John Francis Wade (attr.)
01. Adeste fideles / O Come, All Ye Faithful
Adolphe Adam
02. Cantique de Noel (Minuit, chrétiens) / O Holy Night
Pietro A. Yon
03. Gesù bambino
Felix Mendelssohn Bartholdy
04. Hark! The Herald Angels Sing
Gustav Holst
05. In the Bleak Midwinter
Emmy Köhler
06. Nu tändas tusen juleljus
Traditional
07. Entre le boeuf et l'âne gris
Ralph Vaughan Williams, Ralph Greaves
08. What Child Is This?
Franz Xaver Gruber
09. Silent Night
Irving Berlin
10. White Christmas
James Lord Pierpont
11. Jingle Bells
Hugh Martin & Ralph Blane
12. Have Yourself a Merry Little Christmas
Felix Bernard
13. Winter Wonderland
Mel Tormé & Robert Wells
14. The Christmas Song (Chestnuts Roasting on an Open Fire)
Jule Styne
15. Let It Snow! Let It Snow! Let It Snow!
Mariah Carey & Walter Afanasieff
16. All I Want for Christmas Is You


Exact Audio Copy V1.5 from 20. February 2020

EAC extraction logfile from 28. February 2021, 0:48

Jonas Kaufmann, Mozarteumorchester Salzburg, Jochen Rieder / It's Christmas! - CD1

Used drive : ASUS SDRW-08U7M-U Adapter: 1 ID: 0

Read mode : Secure
Utilize accurate stream : Yes
Defeat audio cache : Yes
Make use of C2 pointers : No

Read offset correction : 6
Overread into Lead-In and Lead-Out : No
Fill up missing offset samples with silence : Yes
Delete leading and trailing silent blocks : No
Null samples used in CRC calculations : Yes
Used interface : Native Win32 interface for Win NT & 2000

Used output format : User Defined Encoder
Selected bitrate : 128 kBit/s
Quality : High
Add ID3 tag : No
Command line compressor : C:\Program Files (x86)\Exact Audio Copy\Flac\flac.exe
Additional command line options : -V -8 -T "Date=%year%" -T "Genre=%genre%" %source%


TOC of the extracted CD

Track | Start | Length | Start sector | End sector
––––––––––––––––––––––––––––-
1 | 0:00.00 | 2:50.13 | 0 | 12762
2 | 2:50.13 | 3:13.50 | 12763 | 27287
3 | 6:03.63 | 2:27.43 | 27288 | 38355
4 | 8:31.31 | 1:38.54 | 38356 | 45759
5 | 10:10.10 | 3:07.26 | 45760 | 59810
6 | 13:17.36 | 2:42.36 | 59811 | 71996
7 | 15:59.72 | 2:15.41 | 71997 | 82162
8 | 18:15.38 | 2:14.22 | 82163 | 92234
9 | 20:29.60 | 2:43.31 | 92235 | 104490
10 | 23:13.16 | 2:48.40 | 104491 | 117130
11 | 26:01.56 | 1:45.53 | 117131 | 125058
12 | 27:47.34 | 2:06.62 | 125059 | 134570
13 | 29:54.21 | 2:13.59 | 134571 | 144604
14 | 32:08.05 | 3:08.73 | 144605 | 158777
15 | 35:17.03 | 3:48.54 | 158778 | 175931
16 | 39:05.57 | 2:18.48 | 175932 | 186329
17 | 41:24.30 | 2:33.61 | 186330 | 197865
18 | 43:58.16 | 1:17.53 | 197866 | 203693
19 | 45:15.69 | 2:29.11 | 203694 | 214879
20 | 47:45.05 | 2:54.30 | 214880 | 227959
21 | 50:39.35 | 2:53.02 | 227960 | 240936
22 | 53:32.37 | 2:08.16 | 240937 | 250552
23 | 55:40.53 | 1:40.53 | 250553 | 258105
24 | 57:21.31 | 1:57.36 | 258106 | 266916
25 | 59:18.67 | 4:22.04 | 266917 | 286570
26 | 63:40.71 | 3:33.05 | 286571 | 302550


Range status and errors

Selected range

Filename C:\temp\Jonas Kaufmann - It's Christmas - 2020\CD1\It's Christmas! - CD1.wav

Peak level 98.5 %
Extraction speed 5.1 X
Range quality 100.0 %
Test CRC FCA6D10E
Copy CRC FCA6D10E
Copy OK

No errors occurred


AccurateRip summary

Track 1 accurately ripped (confidence 4) [43BBB413] (AR v2)
Track 2 accurately ripped (confidence 4) [178C521E] (AR v2)
Track 3 accurately ripped (confidence 4) [3649FC94] (AR v2)
Track 4 accurately ripped (confidence 4) [62861310] (AR v2)
Track 5 accurately ripped (confidence 4) [E1CBAB34] (AR v2)
Track 6 accurately ripped (confidence 4) [E03C44A0] (AR v2)
Track 7 accurately ripped (confidence 4) [4D38427B] (AR v2)
Track 8 accurately ripped (confidence 4) [2295FFB2] (AR v2)
Track 9 accurately ripped (confidence 4) [92FAB2AA] (AR v2)
Track 10 accurately ripped (confidence 4) [5E5AEE42] (AR v2)
Track 11 accurately ripped (confidence 4) [77607131] (AR v2)
Track 12 accurately ripped (confidence 4) [48F5D7F3] (AR v2)
Track 13 accurately ripped (confidence 4) [76D76231] (AR v2)
Track 14 accurately ripped (confidence 4) [A7F5941A] (AR v2)
Track 15 accurately ripped (confidence 4) [E0AF07F6] (AR v2)
Track 16 accurately ripped (confidence 4) [8F9DBC32] (AR v2)
Track 17 accurately ripped (confidence 4) [FBF45D2B] (AR v2)
Track 18 accurately ripped (confidence 4) [B163BBAF] (AR v2)
Track 19 accurately ripped (confidence 4) [19A7B2E4] (AR v2)
Track 20 accurately ripped (confidence 4) [C905EBC0] (AR v2)
Track 21 accurately ripped (confidence 4) [B60DC9E5] (AR v2)
Track 22 accurately ripped (confidence 4) [79C2D272] (AR v2)
Track 23 accurately ripped (confidence 4) [221D9724] (AR v2)
Track 24 accurately ripped (confidence 4) [D942F371] (AR v2)
Track 25 accurately ripped (confidence 4) [5555FAFC] (AR v2)
Track 26 accurately ripped (confidence 4) [DD23DDEC] (AR v2)

All tracks accurately ripped

End of status report

==== Log checksum CF0CD0F3EC1B475EA3C80B32A1A0A152E1C06B9EF0915F4656F226E9B0968A90 ====


Exact Audio Copy V1.5 from 20. February 2020

EAC extraction logfile from 28. February 2021, 1:30

Jonas Kaufmann, Mozarteumorchester Salzburg, Jochen Rieder / It's Christmas! - CD2

Used drive : ASUS SDRW-08U7M-U Adapter: 1 ID: 0

Read mode : Secure
Utilize accurate stream : Yes
Defeat audio cache : Yes
Make use of C2 pointers : No

Read offset correction : 6
Overread into Lead-In and Lead-Out : No
Fill up missing offset samples with silence : Yes
Delete leading and trailing silent blocks : No
Null samples used in CRC calculations : Yes
Used interface : Native Win32 interface for Win NT & 2000

Used output format : User Defined Encoder
Selected bitrate : 128 kBit/s
Quality : High
Add ID3 tag : No
Command line compressor : C:\Program Files (x86)\Exact Audio Copy\Flac\flac.exe
Additional command line options : -V -8 -T "Date=%year%" -T "Genre=%genre%" %source%


TOC of the extracted CD

Track | Start | Length | Start sector | End sector
––––––––––––––––––––––––––––-
1 | 0:00.00 | 2:27.51 | 0 | 11075
2 | 2:27.51 | 5:22.33 | 11076 | 35258
3 | 7:50.09 | 4:07.19 | 35259 | 53802
4 | 11:57.28 | 3:07.46 | 53803 | 67873
5 | 15:04.74 | 3:47.53 | 67874 | 84951
6 | 18:52.52 | 3:23.24 | 84952 | 100200
7 | 22:16.01 | 2:01.36 | 100201 | 109311
8 | 24:17.37 | 3:06.70 | 109312 | 123331
9 | 27:24.32 | 3:25.62 | 123332 | 138768
10 | 30:50.19 | 3:30.25 | 138769 | 154543
11 | 34:20.44 | 2:22.10 | 154544 | 165203
12 | 36:42.54 | 4:22.31 | 165204 | 184884
13 | 41:05.10 | 2:18.01 | 184885 | 195235
14 | 43:23.11 | 2:56.47 | 195236 | 208482
15 | 46:19.58 | 2:42.60 | 208483 | 220692
16 | 49:02.43 | 3:45.04 | 220693 | 237571


Range status and errors

Selected range

Filename C:\temp\Jonas Kaufmann - It's Christmas - 2020\CD2\It's Christmas! - CD2.wav

Peak level 98.4 %
Extraction speed 4.5 X
Range quality 99.9 %
Test CRC DCE89011
Copy CRC DCE89011
Copy OK

No errors occurred


AccurateRip summary

Track 1 accurately ripped (confidence 3) [3E6C3AC8] (AR v2)
Track 2 accurately ripped (confidence 3) [F994D8A3] (AR v2)
Track 3 accurately ripped (confidence 3) [4FF693C4] (AR v2)
Track 4 accurately ripped (confidence 3) [FEA04F4C] (AR v2)
Track 5 accurately ripped (confidence 3) [1A6640B8] (AR v2)
Track 6 accurately ripped (confidence 3) [4775C4A0] (AR v2)
Track 7 accurately ripped (confidence 3) [5B7D53A1] (AR v2)
Track 8 accurately ripped (confidence 3) [4AE47EE9] (AR v2)
Track 9 accurately ripped (confidence 3) [73103CC0] (AR v2)
Track 10 accurately ripped (confidence 3) [623485DC] (AR v2)
Track 11 accurately ripped (confidence 3) [AB5E597B] (AR v2)
Track 12 accurately ripped (confidence 3) [00EB2EC7] (AR v2)
Track 13 accurately ripped (confidence 3) [ED2C345A] (AR v2)
Track 14 accurately ripped (confidence 3) [B151FA04] (AR v2)
Track 15 accurately ripped (confidence 3) [7EAB963E] (AR v2)
Track 16 accurately ripped (confidence 3) [6A62358C] (AR v2)

All tracks accurately ripped

End of status report

==== Log checksum EB866490A06351AAC7513762C513AC032ED9F147AD6AA282AF14E9D8FA7504E8 ====

Jonas Kaufmann, Jochen Rieder, Mozarteumorchester Salzburg - It's Christmas! (2020)

Thanks to the original releaser