Subcategories

Hesperion XX, Jordi Savall - William Brade: Hamburger Ratsmusik - Consort Music C. 1600 (1998) [Re-Up]

Posted By: Designol
Hesperion XX, Jordi Savall - William Brade: Hamburger Ratsmusik - Consort Music C. 1600 (1998) [Re-Up]

Hespèrion XX, Jordi Savall - William Brade: Hamburger Ratsmusik - Consort Music C. 1600 (1998)
EAC | FLAC | Tracks (Cue&Log) ~ 257 Mb | Mp3 (CBR320) ~ 120 Mb | Scans included | 00:50:36
Classical, Renaissance | Label: Deutsche Harmonia Mundi, BMG Classics | # 05472 77476 2

English composer and violinist William Brade was a significant transitional figure in instrumental music between the Renaissance and Baroque periods. Brade is credited with transplanting English musical practices most readily associated with William Byrd, Peter Philips, and John Dowland to North German and Scandinavian soil, and in aiding the transformation from the Renaissance notion of the English consort to the more continental Baroque idea of a string orchestra.

Brade first appears in the historical record as a violinist listed within the Brandenburg court orchestra in about 1590. Through 1622 Brade traveled in Northern Europe extensively, performing in the service of King Christian IV of Denmark in Copenhagen (where he came into contact with German virtuoso Johann Schop), in Berlin, and in Hamburg, where 16 of his pieces first appeared in a published edition of 1607. From 1613, Brade was employed in a number of posts, sometimes holding down a situation in two different courts at one time, such was the demand for his services. In 1722 Brade settled in Gottdorf, court of Duke Friedrich III of Holstein-Schaumberg where he was appointed director of the Hofkapelle. Being a foreigner employed in a town overrun with the Thirty Years' War proved too uncomfortable, and Brade was forced to flee back to Hamburg for the rest of his days.

Brade left behind him a substantive legacy of instrumental compositions consisting mainly of dances and even some primitively organized groups of pieces that resemble dance suites. Brade compiled no less than four published collections containing 167 dances, appearing in Hamburg in 1609, 1614, and 1617 with a final collection printed in Berlin in 1621; another 18 dances have been recovered from separate publications. Brade's set of variations Corale is by far the earliest piece of solo violin music composed by an Englishman, and Brade was also the first Englishman to assimilate into his work such continental dances as the canzone and intrada. Although not all of his tunes are original, Brade's dances are usually scored in five, and sometimes six, parts. Brade states that the music may be played by larger groups of instruments, though the music is strongly melodic in character and ultimately seems best suited to a smaller unit, such as a violin consort.

Uncle Dave Lewis, Allmusic.com

Hesperion XX, Jordi Savall - William Brade: Hamburger Ratsmusik - Consort Music C. 1600 (1998) [Re-Up]


William Brade at Allmusic
William Brade at Wiki

Hespèrion XX
Jordi Savall, direction

Recorded at the Museo della Tecnica e Scienza, Cenacolo, Milano, 21.-30. April 1981

Tracklist:

Newe Ausserlesene Paduanen, Galliarden, Canzonen,
Allmand Und Coranten Auff Allen Musicalischen Instrumenten
Lieblich Zu Gebrauchen (Mit 5 Stimmen) Hamburg 1609
01. 1. Intrada V (3:23)
02. 2. Allmand XVIII (2:14)
03. 3. Courant XVIII (1:09)
04. 4. Allmand II (1:47)
05. 5. Canzon 1a pars Galliard XVI (4:09)
06. 6. Canzon 1a pars Galliard XV (2:53)
07. 7. Paduana X-1 (4:10)
08. 8. Galliard X-2 (1:56)
09. 9. Canzon 1a pars XVI-1 (2:00)
10. 10. Canzon 2a pars XV-2 (2:04)

Newe Ausserlesene Paduanen Und Galliarden Auff Allen Musicalischen Instrumenten
Und Insonderheit Auf Fiolen Lieblich Zu Gebrauchen (Mit 6 Stimmen) Hamburg 1614
11. 1. Paduana VIII (5:08)
12. 2. Galliard IX (1:17)
13. 3. Galliard XXI (1:49)
14. 4. Paduana I (3:34)
15. 5. Galliard II (0:52)
16. 6. Paduana XXIV (4:24)
17. 7. Galliard XXVII (1:20)
18. 8. Galliard XXV (1:42)
19. 9. Paduana XII (3:23)
20. 10. Galliard XIII (1:21)


Exact Audio Copy V1.0 beta 1 from 15. November 2010

EAC extraction logfile from 21. February 2013, 23:09

Brade, William / Hamburger Ratsmusik - Consort Music (Savall, Hesperion XX)

Used drive : TSSTcorpCDDVDW TS-L633A Adapter: 3 ID: 0

Read mode : Secure
Utilize accurate stream : Yes
Defeat audio cache : Yes
Make use of C2 pointers : No

Read offset correction : 6
Overread into Lead-In and Lead-Out : No
Fill up missing offset samples with silence : Yes
Delete leading and trailing silent blocks : No
Null samples used in CRC calculations : Yes
Used interface : Installed external ASPI interface
Gap handling : Appended to previous track

Used output format : User Defined Encoder
Selected bitrate : 896 kBit/s
Quality : High
Add ID3 tag : No
Command line compressor : C:\Program Files\Exact Audio Copy\FLAC\FLAC.EXE
Additional command line options : -8 -V -T "ARTIST=%a" -T "TITLE=%t" -T "ALBUM=%g" -T "DATE=%y" -T "TRACKNUMBER=%n" -T "TOTALTRACKS=%x" -T "GENRE=%m" -T "ALBUMARTIST=%v" -T "ALBUM ARTIST=%v" -T "COMMENT=EAC Secure Mode, Test & Copy, AccurateRip, FLAC -8" %s


TOC of the extracted CD

Track | Start | Length | Start sector | End sector
––––––––––––––––––––––––––––-
1 | 0:00.32 | 3:23.00 | 32 | 15256
2 | 3:23.32 | 2:13.50 | 15257 | 25281
3 | 5:37.07 | 1:08.45 | 25282 | 30426
4 | 6:45.52 | 1:47.30 | 30427 | 38481
5 | 8:33.07 | 4:09.25 | 38482 | 57181
6 | 12:42.32 | 2:52.53 | 57182 | 70134
7 | 15:35.10 | 4:10.30 | 70135 | 88914
8 | 19:45.40 | 1:55.67 | 88915 | 97606
9 | 21:41.32 | 2:00.20 | 97607 | 106626
10 | 23:41.52 | 2:03.55 | 106627 | 115906
11 | 25:45.32 | 5:07.38 | 115907 | 138969
12 | 30:52.70 | 1:16.70 | 138970 | 144739
13 | 32:09.65 | 1:48.67 | 144740 | 152906
14 | 33:58.57 | 3:34.33 | 152907 | 168989
15 | 37:33.15 | 0:52.17 | 168990 | 172906
16 | 38:25.32 | 4:24.13 | 172907 | 192719
17 | 42:49.45 | 1:19.62 | 192720 | 198706
18 | 44:09.32 | 1:42.00 | 198707 | 206356
19 | 45:51.32 | 3:23.25 | 206357 | 221606
20 | 49:14.57 | 1:21.25 | 221607 | 227706


Track 1

Filename C:\MY RIPS\01 - Newe ausserlesene Paduanen, Galliarden, Canzonen (1609) - 1. Intrada V.wav

Pre-gap length 0:00:02.32

Peak level 99.0 %
Extraction speed 1.0 X
Track quality 100.0 %
Test CRC 414E3BA3
Copy CRC 414E3BA3
Accurately ripped (confidence 9) [E248C9D9]
Copy OK

Track 2

Filename C:\MY RIPS\02 - Newe ausserlesene Paduanen, Galliarden, Canzonen (1609) - 2. Allmand XVIII.wav

Pre-gap length 0:00:02.00

Peak level 18.7 %
Extraction speed 1.0 X
Track quality 100.0 %
Test CRC 07ABFA95
Copy CRC 07ABFA95
Accurately ripped (confidence 9) [7D84DDAE]
Copy OK

Track 3

Filename C:\MY RIPS\03 - Newe ausserlesene Paduanen, Galliarden, Canzonen (1609) - 3. Courant XVIII.wav

Pre-gap length 0:00:01.00

Peak level 40.6 %
Extraction speed 0.9 X
Track quality 100.0 %
Test CRC 49F2F58D
Copy CRC 49F2F58D
Accurately ripped (confidence 9) [DB8C37CC]
Copy OK

Track 4

Filename C:\MY RIPS\04 - Newe ausserlesene Paduanen, Galliarden, Canzonen (1609) - 4. Allmand II.wav

Pre-gap length 0:00:01.20

Peak level 99.0 %
Extraction speed 1.0 X
Track quality 100.0 %
Test CRC A2080114
Copy CRC A2080114
Accurately ripped (confidence 9) [EEF474D0]
Copy OK

Track 5

Filename C:\MY RIPS\05 - Newe ausserlesene Paduanen, Galliarden, Canzonen (1609) - 5. Canzon 1a pars Galliard XVI.wav

Pre-gap length 0:00:02.50

Peak level 40.5 %
Extraction speed 1.3 X
Track quality 100.0 %
Test CRC 935AE4D3
Copy CRC 935AE4D3
Accurately ripped (confidence 9) [89D2F437]
Copy OK

Track 6

Filename C:\MY RIPS\06 - Newe ausserlesene Paduanen, Galliarden, Canzonen (1609) - 6. Canzon 1a pars Galliard XV.wav

Pre-gap length 0:00:01.67

Peak level 39.0 %
Extraction speed 1.3 X
Track quality 100.0 %
Test CRC 71653CD7
Copy CRC 71653CD7
Accurately ripped (confidence 9) [E7F52157]
Copy OK

Track 7

Filename C:\MY RIPS\07 - Newe ausserlesene Paduanen, Galliarden, Canzonen (1609) - 7. Paduana X-1.wav

Pre-gap length 0:00:02.28

Peak level 24.3 %
Extraction speed 1.2 X
Track quality 99.9 %
Test CRC 440DE65D
Copy CRC 440DE65D
Accurately ripped (confidence 9) [24D2863C]
Copy OK

Track 8

Filename C:\MY RIPS\08 - Newe ausserlesene Paduanen, Galliarden, Canzonen (1609) - 8. Galliard X-2.wav

Pre-gap length 0:00:01.58

Peak level 33.9 %
Extraction speed 0.9 X
Track quality 99.9 %
Test CRC 485BDA80
Copy CRC 485BDA80
Accurately ripped (confidence 9) [D5135688]
Copy OK

Track 9

Filename C:\MY RIPS\09 - Newe ausserlesene Paduanen, Galliarden, Canzonen (1609) - 9. Canzon 1a pars XVI-1.wav

Pre-gap length 0:00:02.25

Peak level 80.3 %
Extraction speed 1.4 X
Track quality 100.0 %
Test CRC 7F593ED8
Copy CRC 7F593ED8
Accurately ripped (confidence 9) [31EAE99B]
Copy OK

Track 10

Filename C:\MY RIPS\10 - Newe ausserlesene Paduanen, Galliarden, Canzonen (1609) - 10. Canzon 2a pars XV-2.wav

Pre-gap length 0:00:00.70

Peak level 88.4 %
Extraction speed 1.4 X
Track quality 100.0 %
Test CRC B7329E22
Copy CRC B7329E22
Accurately ripped (confidence 9) [B7219AB0]
Copy OK

Track 11

Filename C:\MY RIPS\11 - Newe ausserlesene Paduanen und Galliarden (1614) - 1. Paduana VIII.wav

Pre-gap length 0:00:03.25

Peak level 42.9 %
Extraction speed 1.7 X
Track quality 100.0 %
Test CRC 77926682
Copy CRC 77926682
Accurately ripped (confidence 9) [C4DCC557]
Copy OK

Track 12

Filename C:\MY RIPS\12 - Newe ausserlesene Paduanen und Galliarden (1614) - 2. Galliard IX.wav

Pre-gap length 0:00:01.10

Peak level 50.5 %
Extraction speed 1.3 X
Track quality 100.0 %
Test CRC 4F9C1A70
Copy CRC 4F9C1A70
Accurately ripped (confidence 9) [1656708A]
Copy OK

Track 13

Filename C:\MY RIPS\13 - Newe ausserlesene Paduanen und Galliarden (1614) - 3. Galliard XXI.wav

Pre-gap length 0:00:00.50

Peak level 99.0 %
Extraction speed 0.9 X
Track quality 99.9 %
Test CRC B8C67D1E
Copy CRC B8C67D1E
Accurately ripped (confidence 9) [EA3FD006]
Copy OK

Track 14

Filename C:\MY RIPS\14 - Newe ausserlesene Paduanen und Galliarden (1614) - 4. Paduana I.wav

Pre-gap length 0:00:02.25

Peak level 42.8 %
Extraction speed 1.8 X
Track quality 100.0 %
Test CRC 7DA5EA95
Copy CRC 7DA5EA95
Accurately ripped (confidence 9) [C1F170C4]
Copy OK

Track 15

Filename C:\MY RIPS\15 - Newe ausserlesene Paduanen und Galliarden (1614) - 5. Galliard II.wav

Pre-gap length 0:00:00.58

Peak level 44.8 %
Extraction speed 1.2 X
Track quality 100.0 %
Test CRC 49569C7F
Copy CRC 49569C7F
Accurately ripped (confidence 9) [9F9C7096]
Copy OK

Track 16

Filename C:\MY RIPS\16 - Newe ausserlesene Paduanen und Galliarden (1614) - 6. Paduana XXIV.wav

Pre-gap length 0:00:03.00

Peak level 77.5 %
Extraction speed 1.9 X
Track quality 100.0 %
Test CRC 522890B6
Copy CRC 522890B6
Accurately ripped (confidence 9) [C1D7E929]
Copy OK

Track 17

Filename C:\MY RIPS\17 - Newe ausserlesene Paduanen und Galliarden (1614) - 7. Galliard XXVII.wav

Pre-gap length 0:00:00.63

Peak level 30.0 %
Extraction speed 1.5 X
Track quality 100.0 %
Test CRC F12ADB08
Copy CRC F12ADB08
Accurately ripped (confidence 9) [797749B0]
Copy OK

Track 18

Filename C:\MY RIPS\18 - Newe ausserlesene Paduanen und Galliarden (1614) - 8. Galliard XXV.wav

Pre-gap length 0:00:01.12

Peak level 59.8 %
Extraction speed 1.7 X
Track quality 100.0 %
Test CRC B181A49A
Copy CRC B181A49A
Accurately ripped (confidence 9) [C3B3FB98]
Copy OK

Track 19

Filename C:\MY RIPS\19 - Newe ausserlesene Paduanen und Galliarden (1614) - 9. Paduana XII.wav

Pre-gap length 0:00:03.00

Peak level 61.9 %
Extraction speed 2.0 X
Track quality 100.0 %
Test CRC 6FA3F281
Copy CRC 6FA3F281
Accurately ripped (confidence 9) [3079B15D]
Copy OK

Track 20

Filename C:\MY RIPS\20 - Newe ausserlesene Paduanen und Galliarden (1614) - 10. Galliard XIII.wav

Pre-gap length 0:00:01.12

Peak level 89.4 %
Extraction speed 1.6 X
Track quality 100.0 %
Test CRC 7BD1F1A3
Copy CRC 7BD1F1A3
Accurately ripped (confidence 9) [236AFA37]
Copy OK


All tracks accurately ripped

No errors occurred

End of status report

==== Log checksum 6E4C916379E6CBD7714CA2098763518BA0C129208F4A945A9B30F352B45CC182 ====

[CUETools log; Date: 28.05.2018 5:25:05; Version: 2.1.4]
Pregap length 00:00:32.
[CTDB TOCID: 7.FXh6c1N7oNdyw4gAKwYX.zslg-] found.
Track | CTDB Status
1 | (10/10) Accurately ripped
2 | (10/10) Accurately ripped
3 | (10/10) Accurately ripped
4 | (10/10) Accurately ripped
5 | (10/10) Accurately ripped
6 | (10/10) Accurately ripped
7 | (10/10) Accurately ripped
8 | (10/10) Accurately ripped
9 | (10/10) Accurately ripped
10 | (10/10) Accurately ripped
11 | (10/10) Accurately ripped
12 | (10/10) Accurately ripped
13 | (10/10) Accurately ripped
14 | (10/10) Accurately ripped
15 | (10/10) Accurately ripped
16 | (10/10) Accurately ripped
17 | (10/10) Accurately ripped
18 | (10/10) Accurately ripped
19 | (10/10) Accurately ripped
20 | (10/10) Accurately ripped
[AccurateRip ID: 0025b629-0227d419-0a0bdc14] found.
Track [ CRC | V2 ] Status
01 [e248c9d9|123f540b] (09+10/19) Accurately ripped
02 [7d84ddae|5a6bc762] (09+10/19) Accurately ripped
03 [db8c37cc|ad787c8f] (09+10/19) Accurately ripped
04 [eef474d0|1bd06138] (09+10/19) Accurately ripped
05 [89d2f437|363b80fc] (09+10/19) Accurately ripped
06 [e7f52157|c1d9f946] (09+10/19) Accurately ripped
07 [24d2863c|ca155f48] (09+10/19) Accurately ripped
08 [d5135688|64cc10e9] (09+10/19) Accurately ripped
09 [31eae99b|6d7133b3] (09+10/19) Accurately ripped
10 [b7219ab0|0177a7c1] (09+10/19) Accurately ripped
11 [c4dcc557|d4afd796] (09+10/19) Accurately ripped
12 [1656708a|90fe3f59] (09+10/19) Accurately ripped
13 [ea3fd006|7e82fa54] (09+10/19) Accurately ripped
14 [c1f170c4|adce4c29] (09+10/19) Accurately ripped
15 [9f9c7096|8643501a] (09+10/19) Accurately ripped
16 [c1d7e929|2b743891] (09+10/19) Accurately ripped
17 [797749b0|17d1342b] (09+10/19) Accurately ripped
18 [c3b3fb98|30d266d6] (09+10/19) Accurately ripped
19 [3079b15d|dd986ecc] (09+10/19) Accurately ripped
20 [236afa37|65e73a5c] (09+10/19) Accurately ripped

Track Peak [ CRC32 ] [W/O NULL] [ LOG ]
– 99,0 [D5B5C109] [2BA94BEB]
01 99,0 [414E3BA3] [05EF141F] CRC32
02 18,7 [07ABFA95] [7FA1412C] CRC32
03 40,6 [49F2F58D] [E11BF8EE] CRC32
04 99,0 [A2080114] [C239AB62] CRC32
05 40,5 [935AE4D3] [CD610661] CRC32
06 39,0 [71653CD7] [E6C1EC01] CRC32
07 24,3 [440DE65D] [FC1914D1] CRC32
08 33,9 [485BDA80] [E9D0048E] CRC32
09 80,3 [7F593ED8] [013280E9] CRC32
10 88,4 [B7329E22] [1DE9EEF9] CRC32
11 42,9 [77926682] [F9965F52] CRC32
12 50,5 [4F9C1A70] [6BD4FBC6] CRC32
13 99,0 [B8C67D1E] [D14228C7] CRC32
14 42,8 [7DA5EA95] [6B5CB560] CRC32
15 44,8 [49569C7F] [DB000B1F] CRC32
16 77,5 [522890B6] [82729E20] CRC32
17 30,0 [F12ADB08] [566B0FFF] CRC32
18 59,8 [B181A49A] [EA5AE80F] CRC32
19 61,9 [6FA3F281] [1F41A36C] CRC32
20 89,4 [7BD1F1A3] [3F1B49F9] CRC32

foobar2000 1.2 / Dynamic Range Meter 1.1.1
log date: 2018-05-28 05:33:36

––––––––––––––––––––––––––––––––––––––––
Analyzed: Brade, William / Hamburger Ratsmusik - Consort Music (Savall, Hesperion XX)
––––––––––––––––––––––––––––––––––––––––

DR Peak RMS Duration Track
––––––––––––––––––––––––––––––––––––––––
DR13 -0.09 dB -16.01 dB 3:23 01-Newe ausserlesene Paduanen, Galliarden, Canzonen (1609) - 1. Intrada V
DR14 -14.53 dB -31.78 dB 2:14 02-Newe ausserlesene Paduanen, Galliarden, Canzonen (1609) - 2. Allmand XVIII
DR13 -7.83 dB -23.17 dB 1:09 03-Newe ausserlesene Paduanen, Galliarden, Canzonen (1609) - 3. Courant XVIII
DR14 -0.08 dB -17.72 dB 1:47 04-Newe ausserlesene Paduanen, Galliarden, Canzonen (1609) - 4. Allmand II
DR13 -7.85 dB -24.85 dB 4:09 05-Newe ausserlesene Paduanen, Galliarden, Canzonen (1609) - 5. Canzon 1a pars Galliard XVI
DR14 -8.16 dB -24.83 dB 2:53 06-Newe ausserlesene Paduanen, Galliarden, Canzonen (1609) - 6. Canzon 1a pars Galliard XV
DR16 -12.25 dB -31.27 dB 4:10 07-Newe ausserlesene Paduanen, Galliarden, Canzonen (1609) - 7. Paduana X-1
DR15 -9.39 dB -27.90 dB 1:56 08-Newe ausserlesene Paduanen, Galliarden, Canzonen (1609) - 8. Galliard X-2
DR12 -1.90 dB -17.78 dB 2:00 09-Newe ausserlesene Paduanen, Galliarden, Canzonen (1609) - 9. Canzon 1a pars XVI-1
DR13 -1.06 dB -18.01 dB 2:04 10-Newe ausserlesene Paduanen, Galliarden, Canzonen (1609) - 10. Canzon 2a pars XV-2
DR13 -7.35 dB -23.48 dB 5:08 11-Newe ausserlesene Paduanen und Galliarden (1614) - 1. Paduana VIII
DR12 -5.93 dB -22.10 dB 1:17 12-Newe ausserlesene Paduanen und Galliarden (1614) - 2. Galliard IX
DR11 -0.08 dB -14.41 dB 1:49 13-Newe ausserlesene Paduanen und Galliarden (1614) - 3. Galliard XXI
DR13 -7.36 dB -23.56 dB 3:34 14-Newe ausserlesene Paduanen und Galliarden (1614) - 4. Paduana I
DR12 -6.96 dB -22.21 dB 0:52 15-Newe ausserlesene Paduanen und Galliarden (1614) - 5. Galliard II
DR12 -2.21 dB -19.09 dB 4:24 16-Newe ausserlesene Paduanen und Galliarden (1614) - 6. Paduana XXIV
DR11 -10.45 dB -24.76 dB 1:20 17-Newe ausserlesene Paduanen und Galliarden (1614) - 7. Galliard XXVII
DR12 -4.46 dB -19.38 dB 1:42 18-Newe ausserlesene Paduanen und Galliarden (1614) - 8. Galliard XXV
DR12 -4.16 dB -20.60 dB 3:23 19-Newe ausserlesene Paduanen und Galliarden (1614) - 9. Paduana XII
DR13 -0.96 dB -18.45 dB 1:21 20-Newe ausserlesene Paduanen und Galliarden (1614) - 10. Galliard XIII
––––––––––––––––––––––––––––––––––––––––

Number of tracks: 20
Official DR value: DR13

Samplerate: 44100 Hz
Channels: 2
Bits per sample: 16
Bitrate: 770 kbps
Codec: FLAC
================================================================================

Hesperion XX, Jordi Savall - William Brade: Hamburger Ratsmusik - Consort Music C. 1600 (1998) [Re-Up]

Hesperion XX, Jordi Savall - William Brade: Hamburger Ratsmusik - Consort Music C. 1600 (1998) [Re-Up]

All thanks to original releaser - miloslav2011

More interesting music in My Blog