Tags
Language
Tags
January 2023
Su Mo Tu We Th Fr Sa
1 2 3 4 5 6 7
8 9 10 11 12 13 14
15 16 17 18 19 20 21
22 23 24 25 26 27 28
29 30 31 1 2 3 4

Jos van Immerseel, Anima Eterna - Beethoven: Symphonies & Ouvertures (2008) (6 CDs Box Set)

Posted By: murena
Jos van Immerseel, Anima Eterna - Beethoven: Symphonies & Ouvertures (2008) (6 CDs Box Set)

Jos van Immerseel, Anima Eterna - Beethoven: Symphonies & Ouvertures (2008) (6 CDs Box Set)
EAC Rip | FLAC (Image+.cue, log) | 06:14:17 min | 1,76 Gb | Scans->129 mb
Genre: Classical / Label: ZigZag Territoires

These performances of the Beethoven symphonies and overtures seek to perform these masterpieces employing the same instrumentation, acoustics and timing that Beethoven heard (when he could) and used. Thus we are placed in hearing this music the way its composer wanted us to hear it.

Tracklist:
CD1
1. The Creatures of Prometheus, Overture in C major, op.43 [0:04:50.13]
Symphony No.1 in C major, op.21
2. I. Adagio molto - Allegro con brio [0:08:56.02]
3. II. Andante cantabile con moto [0:07:07.44]
4. III. Menuetto: Allegro molto e vivace [0:03:22.08]
5. IV. Finale: Adagio - Allegro molto e vivace [0:05:55.58]
Symphony No.2 in D major, op.36
6. I. Adagio molto - Allegro con brio [0:12:29.47]
7. II. Larghetto [0:10:49.40]
8. III. Scherzo: Allegro [0:03:44.70]
9. IV. Allegro molto [0:06:24.30]

CD2
Symphony No.3 in E flat major, op.55 'Eroica'
1. I. Allegro con brio [0:16:59.49]
2. II. Marcia frunebre: Adagio assai [0:13:26.28]
3. III. Scherzo: Allegro vivace [0:05:39.62]
4. IV. Finale: Allegro molto [0:11:05.05]
5. Coriolan, Overture in D minor, op.62 [0:06:53.15]
6. Egmont, Overture in F minor, op.84 [0:07:21.26]
7. The Ruins of Athens, Overture in G minor, op.113 [0:04:10.51]
8. The Ruins of Athens, Marcia alla turca in B flat major, op.113 [0:02:08.08]

CD3
Symphony No.5 in C Minor, op. 67
1. I. Allegro con brio [0:06:27.69]
2. II. Andante con brio [0:08:12.30]
3. III. Allegro [0:04:27.02]
4. IV. Allegro [0:11:00.72]
Symphony No.4 in B Flat Major, op. 60
5. I. Adagio - Allegro vivace [0:10:21.52]
6. II. Adagio [0:09:42.29]
7. III. Allegro vivace [0:05:27.39]
8. IV. Allegro ma non troppo [0:06:43.56]

CD4
Symphony No.6 in F Major 'Pastoral', Op.68
1. Allegro ma non troppo - Erwachen heiterer Empfindungen [0:10:37.13]
2. Andante molto moto - Szene am Bach [0:12:03.61]
3. Allegro - Lustiges Zusammensein der Landleute [0:04:41.11]
4. Allegro - Gewitter, Sturm [0:03:58.57]
5. Allegretto - Hirtengesang [0:09:23.67]
Symphony No.8 in F Major, Op.93
6. Allegro vivace e con brio [0:08:38.22]
7. Allegretto Scherzando [0:04:01.15]
8. Tempo di Minuetto [0:04:24.58]
9. Allegro vivace [0:07:14.19]

CD5
Symphony No. 7 in A Maj op. 92
1. I. Poco sostenuto - Vivace [0:13:09.36]
2. II. Allegretto [0:08:21.11]
3. III. Presto [0:08:29.65]
4. IV. Allegro con brio [0:09:01.72]
5. Overture - Consecration of the House in D Major, Op 124 [0:11:01.38]

CD6
Symphony No.9 in D minor, Op.125
1. I. Allegro ma non troppo, un poco maestoso [0:15:21.19]
2. II. Molto vivace [0:13:31.40]
3. III. Adagio molto e cantabile [0:12:31.39]
4. IV. Presto - Allegro assai [0:06:11.34]
5. V. Presto - Rezitativo [0:03:25.19]
6. VI. Allegro assai vivace alla marcia [0:10:14.30]
7. VII. Allegro ma non tanto [0:04:06.49]


CD1
Exact Audio Copy V1.0 beta 3 from 29. August 2011
EAC extraction logfile from 14. January 2012, 18:37
Jos Van Immerseel / Beethoven: Symphonies and Overtures [Disc 1]
Used drive : HL-DT-STDVDRAM GSA-H10A Adapter: 0 ID: 0
Read mode : Secure
Utilize accurate stream : Yes
Defeat audio cache : Yes
Make use of C2 pointers : No
Read offset correction : 667
Overread into Lead-In and Lead-Out : No
Fill up missing offset samples with silence : Yes
Delete leading and trailing silent blocks : No
Null samples used in CRC calculations : Yes
Used interface : Native Win32 interface for Win NT & 2000
Used output format : User Defined Encoder
Selected bitrate : 1024 kBit/s
Quality : High
Add ID3 tag : No
Command line compressor : C:\Program Files\Exact Audio Copy\Flac\flac.exe
Additional command line options : -8 -V -T "TITLE=%title%" -T "ARTIST=%artist%" -T "ALBUMARTIST=%albumartist%" -T "ALBUM=%albumtitle%" -T "DATE=%year%" -T "TRACKNUMBER=%tracknr%" -T "TRACKTOTAL=%numtracks%" -T "GENRE=%genre%" -T "COMMENT=%comment%" -T "PERFORMER=%albuminterpret%" -T "COMPOSER=%composer%" %source% -o %dest%
TOC of the extracted CD
Track | Start | Length | Start sector | End sector
––––––––––––––––––––––––––––-
1 | 0:00.00 | 4:50.13 | 0 | 21762
2 | 4:50.13 | 8:56.02 | 21763 | 61964
3 | 13:46.15 | 7:07.44 | 61965 | 94033
4 | 20:53.59 | 3:22.08 | 94034 | 109191
5 | 24:15.67 | 5:55.58 | 109192 | 135874
6 | 30:11.50 | 12:29.47 | 135875 | 192096
7 | 42:41.22 | 10:49.40 | 192097 | 240811
8 | 53:30.62 | 3:44.70 | 240812 | 257681
9 | 57:15.57 | 6:24.30 | 257682 | 286511
Range status and errors
Selected range
Filename F:\Ripped general\Beethoven - Symphonies - Jos Van Immerseel (disc 1)\Jos Van Immerseel - Beethoven- Symphonies and Overtures [Disc 1].wav
Peak level 99.8 %
Extraction speed 7.5 X
Range quality 100.0 %
Copy CRC F532F7BB
Copy OK
No errors occurred
AccurateRip summary
Track 1 accurately ripped (confidence 7) [6BECCD80] (AR v2)
Track 2 accurately ripped (confidence 8) [B7DE54FC] (AR v2)
Track 3 accurately ripped (confidence 8) [428CEBAF] (AR v2)
Track 4 accurately ripped (confidence 8) [72DDCA69] (AR v2)
Track 5 accurately ripped (confidence 8) [63A3EC2B] (AR v2)
Track 6 accurately ripped (confidence 8) [31E12883] (AR v2)
Track 7 accurately ripped (confidence 8) [27CF85AB] (AR v2)
Track 8 accurately ripped (confidence 8) [5237D411] (AR v2)
Track 9 accurately ripped (confidence 8) [6D43693F] (AR v2)
All tracks accurately ripped
End of status report


CD2
Exact Audio Copy V1.0 beta 3 from 29. August 2011
EAC extraction logfile from 14. January 2012, 18:53
Jos Van Immerseel / Jos Van Immerseel - Beethoven- Symphonies and Overtures [Disc 2]
Used drive : HL-DT-STDVDRAM GSA-H10A Adapter: 0 ID: 0
Read mode : Secure
Utilize accurate stream : Yes
Defeat audio cache : Yes
Make use of C2 pointers : No
Read offset correction : 667
Overread into Lead-In and Lead-Out : No
Fill up missing offset samples with silence : Yes
Delete leading and trailing silent blocks : No
Null samples used in CRC calculations : Yes
Used interface : Native Win32 interface for Win NT & 2000
Used output format : User Defined Encoder
Selected bitrate : 1024 kBit/s
Quality : High
Add ID3 tag : No
Command line compressor : C:\Program Files\Exact Audio Copy\Flac\flac.exe
Additional command line options : -8 -V -T "TITLE=%title%" -T "ARTIST=%artist%" -T "ALBUMARTIST=%albumartist%" -T "ALBUM=%albumtitle%" -T "DATE=%year%" -T "TRACKNUMBER=%tracknr%" -T "TRACKTOTAL=%numtracks%" -T "GENRE=%genre%" -T "COMMENT=%comment%" -T "PERFORMER=%albuminterpret%" -T "COMPOSER=%composer%" %source% -o %dest%
TOC of the extracted CD
Track | Start | Length | Start sector | End sector
––––––––––––––––––––––––––––-
1 | 0:00.00 | 16:59.49 | 0 | 76473
2 | 16:59.49 | 13:26.28 | 76474 | 136951
3 | 30:26.02 | 5:39.62 | 136952 | 162438
4 | 36:05.64 | 11:05.05 | 162439 | 212318
5 | 47:10.69 | 6:53.15 | 212319 | 243308
6 | 54:04.09 | 7:21.26 | 243309 | 276409
7 | 61:25.35 | 4:10.51 | 276410 | 295210
8 | 65:36.11 | 2:08.08 | 295211 | 304818
Range status and errors
Selected range
Filename F:\Ripped general\Beethoven - Symphonies - Jos Van Immerseel (disc 2)\Jos Van Immerseel - Jos Van Immerseel - Beethoven- Symphonies and Overtures [Disc 2].wav
Peak level 100.0 %
Extraction speed 7.5 X
Range quality 100.0 %
Copy CRC 6479ED90
Copy OK
No errors occurred
AccurateRip summary
Track 1 accurately ripped (confidence 7) [19E185C5] (AR v2)
Track 2 accurately ripped (confidence 7) [345EC223] (AR v2)
Track 3 accurately ripped (confidence 7) [CB6461DE] (AR v2)
Track 4 accurately ripped (confidence 7) [2AA5CC33] (AR v2)
Track 5 accurately ripped (confidence 7) [020A4110] (AR v2)
Track 6 accurately ripped (confidence 7) [D627D388] (AR v2)
Track 7 accurately ripped (confidence 7) [F0099925] (AR v2)
Track 8 accurately ripped (confidence 7) [BA9422DE] (AR v2)
All tracks accurately ripped
End of status report


CD3
Exact Audio Copy V1.0 beta 3 from 29. August 2011
EAC extraction logfile from 14. January 2012, 19:15
Jos Van Immerseel / Jos Van Immerseel - Beethoven- Symphonies and Overtures [Disc 3]
Used drive : HL-DT-STDVDRAM GSA-H10A Adapter: 0 ID: 0
Read mode : Secure
Utilize accurate stream : Yes
Defeat audio cache : Yes
Make use of C2 pointers : No
Read offset correction : 667
Overread into Lead-In and Lead-Out : No
Fill up missing offset samples with silence : Yes
Delete leading and trailing silent blocks : No
Null samples used in CRC calculations : Yes
Used interface : Native Win32 interface for Win NT & 2000
Used output format : User Defined Encoder
Selected bitrate : 1024 kBit/s
Quality : High
Add ID3 tag : No
Command line compressor : C:\Program Files\Exact Audio Copy\Flac\flac.exe
Additional command line options : -8 -V -T "TITLE=%title%" -T "ARTIST=%artist%" -T "ALBUMARTIST=%albumartist%" -T "ALBUM=%albumtitle%" -T "DATE=%year%" -T "TRACKNUMBER=%tracknr%" -T "TRACKTOTAL=%numtracks%" -T "GENRE=%genre%" -T "COMMENT=%comment%" -T "PERFORMER=%albuminterpret%" -T "COMPOSER=%composer%" %source% -o %dest%
TOC of the extracted CD
Track | Start | Length | Start sector | End sector
––––––––––––––––––––––––––––-
1 | 0:00.00 | 6:27.69 | 0 | 29093
2 | 6:27.69 | 8:12.30 | 29094 | 66023
3 | 14:40.24 | 4:27.02 | 66024 | 86050
4 | 19:07.26 | 11:00.72 | 86051 | 135622
5 | 30:08.23 | 10:21.52 | 135623 | 182249
6 | 40:30.00 | 9:42.29 | 182250 | 225928
7 | 50:12.29 | 5:27.39 | 225929 | 250492
8 | 55:39.68 | 6:43.56 | 250493 | 280773
Range status and errors
Selected range
Filename F:\Ripped general\Beethoven - Symphonies - Jos Van Immerseel (disc 3)\Jos Van Immerseel - Jos Van Immerseel - Beethoven- Symphonies and Overtures [Disc 3].wav
Peak level 100.0 %
Extraction speed 6.8 X
Range quality 99.9 %
Copy CRC 99B6C4B6
Copy OK
No errors occurred
AccurateRip summary
Track 1 accurately ripped (confidence 7) [B734990E] (AR v2)
Track 2 accurately ripped (confidence 7) [D87D8EFE] (AR v2)
Track 3 accurately ripped (confidence 7) [591A615A] (AR v2)
Track 4 accurately ripped (confidence 7) [A4EDA141] (AR v2)
Track 5 accurately ripped (confidence 7) [4833251D] (AR v2)
Track 6 accurately ripped (confidence 7) [C038B5FA] (AR v2)
Track 7 accurately ripped (confidence 7) [1895886E] (AR v2)
Track 8 accurately ripped (confidence 7) [E5EA05E6] (AR v2)
All tracks accurately ripped
End of status report


CD4
Exact Audio Copy V1.0 beta 3 from 29. August 2011
EAC extraction logfile from 14. January 2012, 19:44
Jos van Immerseel / Beethoven- Symphonies and Overtures [Disc 4]
Used drive : HL-DT-STDVDRAM GSA-H10A Adapter: 0 ID: 0
Read mode : Secure
Utilize accurate stream : Yes
Defeat audio cache : Yes
Make use of C2 pointers : No
Read offset correction : 667
Overread into Lead-In and Lead-Out : No
Fill up missing offset samples with silence : Yes
Delete leading and trailing silent blocks : No
Null samples used in CRC calculations : Yes
Used interface : Native Win32 interface for Win NT & 2000
Used output format : User Defined Encoder
Selected bitrate : 1024 kBit/s
Quality : High
Add ID3 tag : No
Command line compressor : C:\Program Files\Exact Audio Copy\Flac\flac.exe
Additional command line options : -8 -V -T "TITLE=%title%" -T "ARTIST=%artist%" -T "ALBUMARTIST=%albumartist%" -T "ALBUM=%albumtitle%" -T "DATE=%year%" -T "TRACKNUMBER=%tracknr%" -T "TRACKTOTAL=%numtracks%" -T "GENRE=%genre%" -T "COMMENT=%comment%" -T "PERFORMER=%albuminterpret%" -T "COMPOSER=%composer%" %source% -o %dest%
TOC of the extracted CD
Track | Start | Length | Start sector | End sector
––––––––––––––––––––––––––––-
1 | 0:00.00 | 10:37.13 | 0 | 47787
2 | 10:37.13 | 12:03.61 | 47788 | 102073
3 | 22:40.74 | 4:41.11 | 102074 | 123159
4 | 27:22.10 | 3:58.57 | 123160 | 141066
5 | 31:20.67 | 9:23.67 | 141067 | 183358
6 | 40:44.59 | 8:38.22 | 183359 | 222230
7 | 49:23.06 | 4:01.15 | 222231 | 240320
8 | 53:24.21 | 4:24.58 | 240321 | 260178
9 | 57:49.04 | 7:14.19 | 260179 | 292747
Range status and errors
Selected range
Filename F:\Ripped general\Beethoven - Symphonies - Jos Van Immerseel (disc 4)\Jos van Immerseel - Beethoven- Symphonies and Overtures [Disc 4].wav
Peak level 99.9 %
Extraction speed 7.6 X
Range quality 100.0 %
Copy CRC D6F92260
Copy OK
No errors occurred
AccurateRip summary
Track 1 accurately ripped (confidence 7) [50B0821A] (AR v2)
Track 2 accurately ripped (confidence 7) [ABA45339] (AR v2)
Track 3 accurately ripped (confidence 7) [70FCD5EB] (AR v2)
Track 4 accurately ripped (confidence 7) [C2A67B9C] (AR v2)
Track 5 accurately ripped (confidence 7) [CC61AFC5] (AR v2)
Track 6 accurately ripped (confidence 7) [898BCCC3] (AR v2)
Track 7 accurately ripped (confidence 7) [2DD5C35E] (AR v2)
Track 8 accurately ripped (confidence 7) [B2D3B637] (AR v2)
Track 9 accurately ripped (confidence 7) [ED9D5C1A] (AR v2)
All tracks accurately ripped
End of status report


CD5
Exact Audio Copy V1.0 beta 3 from 29. August 2011
EAC extraction logfile from 14. January 2012, 19:55
Jos Van Immerseel / Beethoven- Symphonies and Overtures [Disc 5]
Used drive : HL-DT-STDVDRAM GSA-H10A Adapter: 0 ID: 0
Read mode : Secure
Utilize accurate stream : Yes
Defeat audio cache : Yes
Make use of C2 pointers : No
Read offset correction : 667
Overread into Lead-In and Lead-Out : No
Fill up missing offset samples with silence : Yes
Delete leading and trailing silent blocks : No
Null samples used in CRC calculations : Yes
Used interface : Native Win32 interface for Win NT & 2000
Used output format : User Defined Encoder
Selected bitrate : 1024 kBit/s
Quality : High
Add ID3 tag : No
Command line compressor : C:\Program Files\Exact Audio Copy\Flac\flac.exe
Additional command line options : -8 -V -T "TITLE=%title%" -T "ARTIST=%artist%" -T "ALBUMARTIST=%albumartist%" -T "ALBUM=%albumtitle%" -T "DATE=%year%" -T "TRACKNUMBER=%tracknr%" -T "TRACKTOTAL=%numtracks%" -T "GENRE=%genre%" -T "COMMENT=%comment%" -T "PERFORMER=%albuminterpret%" -T "COMPOSER=%composer%" %source% -o %dest%
TOC of the extracted CD
Track | Start | Length | Start sector | End sector
––––––––––––––––––––––––––––-
1 | 0:00.00 | 13:09.36 | 0 | 59210
2 | 13:09.36 | 8:21.11 | 59211 | 96796
3 | 21:30.47 | 8:29.65 | 96797 | 135036
4 | 30:00.37 | 9:01.72 | 135037 | 175683
5 | 39:02.34 | 11:01.38 | 175684 | 225296
Range status and errors
Selected range
Filename F:\Ripped general\Beethoven - Symphonies - Jos Van Immerseel (disc 5)\Jos Van Immerseel - Beethoven- Symphonies and Overtures [Disc 5].wav
Peak level 100.0 %
Extraction speed 6.9 X
Range quality 99.9 %
Copy CRC A1230F41
Copy OK
No errors occurred
AccurateRip summary
Track 1 accurately ripped (confidence 7) [175DCC5F] (AR v2)
Track 2 accurately ripped (confidence 7) [959B2D92] (AR v2)
Track 3 accurately ripped (confidence 7) [96A73922] (AR v2)
Track 4 accurately ripped (confidence 7) [315261E6] (AR v2)
Track 5 accurately ripped (confidence 7) [0954A4D8] (AR v2)
All tracks accurately ripped
End of status report


CD6
Exact udio Copy V1.0 beta 3 from 29. August 2011
EAC extraction logfile from 14. January 2012, 20:47
Jos van Immerseel / Beethoven- Symphonies and Overtures [Disc 6]
Used drive : HL-DT-STDVDRAM GSA-H10A Adapter: 0 ID: 0
Read mode : Secure
Utilize accurate stream : Yes
Defeat audio cache : Yes
Make use of C2 pointers : No
Read offset correction : 667
Overread into Lead-In and Lead-Out : No
Fill up missing offset samples with silence : Yes
Delete leading and trailing silent blocks : No
Null samples used in CRC calculations : Yes
Used interface : Native Win32 interface for Win NT & 2000
Used output format : User Defined Encoder
Selected bitrate : 1024 kBit/s
Quality : High
Add ID3 tag : No
Command line compressor : C:\Program Files\Exact Audio Copy\Flac\flac.exe
Additional command line options : -8 -V -T "TITLE=%title%" -T "ARTIST=%artist%" -T "ALBUMARTIST=%albumartist%" -T "ALBUM=%albumtitle%" -T "DATE=%year%" -T "TRACKNUMBER=%tracknr%" -T "TRACKTOTAL=%numtracks%" -T "GENRE=%genre%" -T "COMMENT=%comment%" -T "PERFORMER=%albuminterpret%" -T "COMPOSER=%composer%" %source% -o %dest%
TOC of the extracted CD
Track | Start | Length | Start sector | End sector
––––––––––––––––––––––––––––-
1 | 0:00.00 | 15:21.19 | 0 | 69093
2 | 15:21.19 | 13:31.40 | 69094 | 129958
3 | 28:52.59 | 12:31.39 | 129959 | 186322
4 | 41:24.23 | 6:11.34 | 186323 | 214181
5 | 47:35.57 | 3:25.19 | 214182 | 229575
6 | 51:01.01 | 10:14.30 | 229576 | 275655
7 | 61:15.31 | 4:06.49 | 275656 | 294154
Range status and errors
Selected range
Filename F:\Ripped general\Beethoven - Symphonies - Jos Van Immerseel (disc 6)\Jos van Immerseel - Beethoven- Symphonies and Overtures [Disc 6].wav
Peak level 100.0 %
Extraction speed 7.6 X
Range quality 100.0 %
Copy CRC 96EB81A4
Copy OK
No errors occurred
AccurateRip summary
Track 1 accurately ripped (confidence 7) [C73CB03D] (AR v2)
Track 2 accurately ripped (confidence 7) [68EA4F24] (AR v2)
Track 3 accurately ripped (confidence 7) [EE5B96A9] (AR v2)
Track 4 accurately ripped (confidence 7) [9C4C6740] (AR v2)
Track 5 accurately ripped (confidence 7) [A06E3BC6] (AR v2)
Track 6 accurately ripped (confidence 7) [7128BECC] (AR v2)
Track 7 accurately ripped (confidence 7) [E9255369] (AR v2)
All tracks accurately ripped
End of status report


Thanks to the original ripper.

**Follow My Music Blog**