Subcategories

Jos Van Veldhoven, Netherlands Bach Society - Johann Sebastian Bach: Johannes-Passion / St. John Passion (2004)

Posted By: ArlegZ
Jos Van Veldhoven, Netherlands Bach Society - Johann Sebastian Bach: Johannes-Passion / St. John Passion (2004)

Jos Van Veldhoven, Netherlands Bach Society - Johann Sebastian Bach: Johannes-Passion / St. John Passion (2004)
EAC | FLAC | Image (Cue & Log) ~ 593 Mb | Total time: 111:28 | Scans included
Classical | Label: Channel Classics | 31309 | Recorded: 2004

This issue of the St. John Passion is also a special event in the world of music, because a choice has been made for Bachs very earliest version of this work (1724) in a reconstruction by musicologist Dr. Pieter Dirksen. The Netherlands Bach Society performs the work in a small-scale scoring with ten singers and eleven instrumentalists, no distinction being made between choristers and soloists. According to the most recent research, this scoring constitutes a very close approximation of the ensemble with which Bach gave the first performance of the St. John Passion. Bachs St. John Passion is less well known to some than his St. Matthew Passion: unjustly so, in many peoples opinion. Judge for yourself, as you treat both your ears and eyes to this performance of the Netherlands Bach Society…

Performer:
Concertists:
Caroline Stam, soprano
Peter de Groot, alto
Gerd Türk, tenor (Evangelist)
Charles Daniels, tenor
Stephan MacLeod, bass (Jesus)
Bas Ramselaar, bass (Petrus, Pilatus, arias)
Ripienists:
Marjon Strijk, soprano (Ancilla)
Marleene Goldstein, Elsbeth Gerritsen, alto
Simon Wall, tenor (Servus)
The Netherlands Bach Society
Jos van Veldhoven, conductor

Track List:
CD1:
Erster Teil
01. No. 1. Chor: Herr, unser Herrscher, dessen Ruhm
02. No. 2. Jesus ging mir seinen Jüngern… / Chor: Jesum von Nazareth / Jesus spricht zu ihnen
03. No. 3. Chor: O grosse Lieb, o Lieb ohn alle Masse
04. No. 4. Auf daß das Wort erfüllet würde…
05. No. 5. Chor: Dein Will gescheh, Herr Gott, zugleich
06. No. 6. Die Schar aber und der Oberhauptmann…
07. No. 7. Aria: Von den Stricken Meiner Sünden
08. No. 8. Simon Petrus aber folgete Jesus nach…
09. No. 9. Aria: Ich folge dir gleichfalls mit freudigen Schritten
10. No. 10. Derselbige Jünger war dem Hohenpriester bekannt…
11. No. 11. Chor: Wer hat dich so geschlagen
12. No. 12. Und Hannas sandte ihm gebunden… / Chor. Bist du nicht seiner Jünger einer?
13. No. 13. Aria: Ach, mein sinn
14. No. 14. Chor: Petrus, der nicht denkt zurück
CD2:
Zweiter Teil
01. No. 15. Chor: Christus, der uns selig macht
02. No. 16. Da führeten sie Jesum… / Chor: Wäre dieser nicht ein Übeltäter / Da sprach Pilatu
03. No. 17. Chor: Ach grosser König gross zu allen Zeiten
04. No. 18. Da sprach Pilatus zu ihm… / Chor: Nicht diesen, diesen nicht… / Barrabas, aber
05. No. 19. Arioso: Betrachte, meine Seel, mit ängstlichem Vergnügen
06. No. 20. Aria: Erwäge, wie sein blutgefärbter Rücken
07. No. 21. Und die Kriegsknechte flochten… / Chor: Sei gegrüsset, lieber Jüdenkönig / Und ga
08. No. 22. Chor: Durch dein Gefängnis, Gottes Sohn
09. No. 23. Die Jüden aber schrieen… / Chor: Lässet du diesen los… / Da Pilatus das Wort hö
10. No. 24. Arie und Chor: Eilt, ihr angefochtnen Seelen
11. No. 25. Allda kreuzigten sie ihn… / Chor: Schribe nicht: der Jüden König… / Pilatus ant
12. No. 26. Chor. In meines Herzens Grunde
13. No. 27. Die Kriegsknechte aber… / Chor: Lasset uns den nicht zerteilen / Auf dass erfülle
14. No. 28. Chor: Er nahm alles wohl in acht
15. No. 29. Und von Stund an nahm sie der Jünger…
16. No. 30. Aria: Es ist vollbracht!
17. No. 31. Und neiget das Haupt…
18. No. 32. Arie und Chor: Mein teurer Heiland, laß dich fragen
19. No. 33. Und der Vorhang im Tempel zerriß…
20. No. 34. Arioso: Mein Herz, in dem die ganze Welt
21. No. 35. Aria: Zerfließe, mein Herze, in Fluten der Zähren
22. No. 36. Die Jüden aber, dieweil es der Rüstrag war…
23. No. 37. Chor: O hilf, Christe, Gottes Sohn
24. No. 38. Darnach bat Pilatum Joseph von Arimathia…
25. No. 39. Chor: Ruht wohl, ihr heiligen Gebeine
26. No. 40. Chor: Ach Herr, laß dein lieb Engelein


Exact Audio Copy V1.3 from 2. September 2016

EAC extraction logfile from 29. February 2020, 9:15

Caroline Stam, Peter de Groot, Gerd Türk, Charles Daniels, Stephan MacLeod, Bas Ramselaar, Marjon Strijk, Marleene Goldstein, E / Bach - St. John Passion (Disc 1)

Used drive : ATAPI iHAS124 F Adapter: 1 ID: 0

Read mode : Secure
Utilize accurate stream : Yes
Defeat audio cache : Yes
Make use of C2 pointers : No

Read offset correction : 6
Overread into Lead-In and Lead-Out : No
Fill up missing offset samples with silence : Yes
Delete leading and trailing silent blocks : No
Null samples used in CRC calculations : Yes
Used interface : Native Win32 interface for Win NT & 2000

Used output format : User Defined Encoder
Selected bitrate : 1024 kBit/s
Quality : High
Add ID3 tag : No
Command line compressor : C:\Program Files (x86)\Exact Audio Copy\FLAC\FLAC.EXE
Additional command line options : -6 -V -T "ARTIST=%artist%" -T "TITLE=%title%" -T "ALBUM=%albumtitle%" -T "DATE=%year%" -T "TRACKNUMBER=%tracknr%" -T "GENRE=%genre%" -T "COMMENT=%comment%" -T "BAND=%albuminterpret%" -T "ALBUMARTIST=%albuminterpret%" -T "COMPOSER=%composer%" %haslyrics%–tag-from-file=LYRICS="%lyricsfile%"%haslyrics% -T "DISCNUMBER=%cdnumber%" -T "TOTALDISCS=%totalcds%" -T "TOTALTRACKS=%numtracks%" %hascover%–picture="%coverfile%"%hascover% %source% -o %dest%


TOC of the extracted CD

Track | Start | Length | Start sector | End sector
––––––––––––––––––––––––––––-
1 | 0:00.00 | 10:04.49 | 0 | 45348
2 | 10:04.49 | 2:26.27 | 45349 | 56325
3 | 12:31.01 | 1:03.15 | 56326 | 61065
4 | 13:34.16 | 1:08.60 | 61066 | 66225
5 | 14:43.01 | 0:48.30 | 66226 | 69855
6 | 15:31.31 | 0:46.24 | 69856 | 73329
7 | 16:17.55 | 4:58.42 | 73330 | 95721
8 | 21:16.22 | 0:11.51 | 95722 | 96597
9 | 21:27.73 | 3:55.06 | 96598 | 114228
10 | 25:23.04 | 3:05.15 | 114229 | 128118
11 | 28:28.19 | 1:44.13 | 128119 | 135931
12 | 30:12.32 | 2:17.26 | 135932 | 146232
13 | 32:29.58 | 3:07.18 | 146233 | 160275
14 | 35:37.01 | 1:26.39 | 160276 | 166764


Range status and errors

Selected range

Filename C:\EACRip\EASTER\Bach - St. John Passion (Jos van Veldhoven) (2004)\CD1\Bach - St. John Passion (Disc 1) - Jos van Veldhoven.wav

Peak level 100.0 %
Extraction speed 7.7 X
Range quality 100.0 %
Test CRC 281BE207
Copy CRC 281BE207
Copy OK

No errors occurred


AccurateRip summary

Track 1 accurately ripped (confidence 28) [A664FC62] (AR v2)
Track 2 accurately ripped (confidence 28) [CD2855AC] (AR v2)
Track 3 accurately ripped (confidence 28) [357B27CA] (AR v2)
Track 4 accurately ripped (confidence 28) [BF68CBAE] (AR v2)
Track 5 accurately ripped (confidence 28) [7205B9A0] (AR v2)
Track 6 accurately ripped (confidence 28) [70B909CE] (AR v2)
Track 7 accurately ripped (confidence 28) [32B259F7] (AR v2)
Track 8 accurately ripped (confidence 28) [F4F38C21] (AR v2)
Track 9 accurately ripped (confidence 28) [ABA63535] (AR v2)
Track 10 accurately ripped (confidence 28) [F23D3EAF] (AR v2)
Track 11 accurately ripped (confidence 28) [3D39A46D] (AR v2)
Track 12 accurately ripped (confidence 28) [60CAEB51] (AR v2)
Track 13 accurately ripped (confidence 28) [E5EC4E3D] (AR v2)
Track 14 accurately ripped (confidence 28) [04C89880] (AR v2)

All tracks accurately ripped

End of status report

–– CUETools DB Plugin V2.1.6

[CTDB TOCID: YE6YEXtKjKV1IPyNjQQw7UsmAbs-] found
Submit result: YE6YEXtKjKV1IPyNjQQw7UsmAbs- has been confirmed
Track | CTDB Status
1 | (43/44) Accurately ripped
2 | (43/44) Accurately ripped
3 | (43/44) Accurately ripped
4 | (43/44) Accurately ripped
5 | (43/44) Accurately ripped
6 | (43/44) Accurately ripped
7 | (43/44) Accurately ripped
8 | (43/44) Accurately ripped
9 | (43/44) Accurately ripped
10 | (43/44) Accurately ripped
11 | (43/44) Accurately ripped
12 | (43/44) Accurately ripped
13 | (43/44) Accurately ripped
14 | (44/44) Accurately ripped


==== Log checksum 69AF4B9FEC55285E80E9D737B99A519BE740634FA2AD2073D625B6100398B48E ====


Exact Audio Copy V1.3 from 2. September 2016

EAC extraction logfile from 1. March 2020, 7:20

Caroline Stam, Peter de Groot, Gerd Türk, Charles Daniels, Stephan MacLeod, Bas Ramselaar, Marjon Strijk, Marleene Goldstein, E / Bach - St. John Passion (Disc 2)

Used drive : ATAPI iHAS124 F Adapter: 1 ID: 0

Read mode : Secure
Utilize accurate stream : Yes
Defeat audio cache : Yes
Make use of C2 pointers : No

Read offset correction : 6
Overread into Lead-In and Lead-Out : No
Fill up missing offset samples with silence : Yes
Delete leading and trailing silent blocks : No
Null samples used in CRC calculations : Yes
Used interface : Native Win32 interface for Win NT & 2000

Used output format : User Defined Encoder
Selected bitrate : 1024 kBit/s
Quality : High
Add ID3 tag : No
Command line compressor : C:\Program Files (x86)\Exact Audio Copy\FLAC\FLAC.EXE
Additional command line options : -6 -V -T "ARTIST=%artist%" -T "TITLE=%title%" -T "ALBUM=%albumtitle%" -T "DATE=%year%" -T "TRACKNUMBER=%tracknr%" -T "GENRE=%genre%" -T "COMMENT=%comment%" -T "BAND=%albuminterpret%" -T "ALBUMARTIST=%albuminterpret%" -T "COMPOSER=%composer%" %haslyrics%–tag-from-file=LYRICS="%lyricsfile%"%haslyrics% -T "DISCNUMBER=%cdnumber%" -T "TOTALDISCS=%totalcds%" -T "TOTALTRACKS=%numtracks%" %hascover%–picture="%coverfile%"%hascover% %source% -o %dest%


TOC of the extracted CD

Track | Start | Length | Start sector | End sector
––––––––––––––––––––––––––––-
1 | 0:00.00 | 1:03.53 | 0 | 4777
2 | 1:03.53 | 4:10.03 | 4778 | 23530
3 | 5:13.56 | 1:32.29 | 23531 | 30459
4 | 6:46.10 | 2:02.03 | 30460 | 39612
5 | 8:48.13 | 2:23.36 | 39613 | 50373
6 | 11:11.49 | 6:38.54 | 50374 | 80277
7 | 17:50.28 | 5:46.39 | 80278 | 106266
8 | 23:36.67 | 0:57.19 | 106267 | 110560
9 | 24:34.11 | 4:10.11 | 110561 | 129321
10 | 28:44.22 | 3:54.18 | 129322 | 146889
11 | 32:38.40 | 2:16.01 | 146890 | 157090
12 | 34:54.41 | 0:59.53 | 157091 | 161568
13 | 35:54.19 | 3:42.06 | 161569 | 178224
14 | 39:36.25 | 1:14.31 | 178225 | 183805
15 | 40:50.56 | 1:22.47 | 183806 | 190002
16 | 42:13.28 | 5:29.65 | 190003 | 214742
17 | 47:43.18 | 0:24.04 | 214743 | 216546
18 | 48:07.22 | 4:44.18 | 216547 | 237864
19 | 52:51.40 | 0:11.60 | 237865 | 238749
20 | 53:03.25 | 0:51.64 | 238750 | 242638
21 | 53:55.14 | 6:22.05 | 242639 | 271293
22 | 60:17.19 | 2:12.69 | 271294 | 281262
23 | 62:30.13 | 1:03.65 | 281263 | 286052
24 | 63:34.03 | 1:48.07 | 286053 | 294159
25 | 65:22.10 | 7:06.30 | 294160 | 326139
26 | 72:28.40 | 1:56.43 | 326140 | 334882


Range status and errors

Selected range

Filename C:\EACRip\EASTER\Bach - St. John Passion (Jos van Veldhoven) (2004)\CD2\Bach - St. John Passion (Disc 2) - Jos van Veldhoven.wav

Peak level 100.0 %
Extraction speed 8.1 X
Range quality 100.0 %
Test CRC 50FC722F
Copy CRC 50FC722F
Copy OK

No errors occurred


AccurateRip summary

Track 1 accurately ripped (confidence 30) [8A17DC66] (AR v2)
Track 2 accurately ripped (confidence 30) [99B819E1] (AR v2)
Track 3 accurately ripped (confidence 30) [A8D1548B] (AR v2)
Track 4 accurately ripped (confidence 30) [E9A3FF3F] (AR v2)
Track 5 accurately ripped (confidence 30) [5E575D6E] (AR v2)
Track 6 accurately ripped (confidence 30) [3A48831E] (AR v2)
Track 7 accurately ripped (confidence 30) [53CFB147] (AR v2)
Track 8 accurately ripped (confidence 30) [9E0B889D] (AR v2)
Track 9 accurately ripped (confidence 30) [43478442] (AR v2)
Track 10 accurately ripped (confidence 30) [25DABDBF] (AR v2)
Track 11 accurately ripped (confidence 30) [93798415] (AR v2)
Track 12 accurately ripped (confidence 30) [3CC04914] (AR v2)
Track 13 accurately ripped (confidence 30) [8AED39F7] (AR v2)
Track 14 accurately ripped (confidence 30) [370D7E72] (AR v2)
Track 15 accurately ripped (confidence 30) [25F052A8] (AR v2)
Track 16 accurately ripped (confidence 30) [90FA3E3F] (AR v2)
Track 17 accurately ripped (confidence 30) [878FB588] (AR v2)
Track 18 accurately ripped (confidence 30) [1DEB61B6] (AR v2)
Track 19 accurately ripped (confidence 30) [3E62F353] (AR v2)
Track 20 accurately ripped (confidence 30) [21DED1C9] (AR v2)
Track 21 accurately ripped (confidence 31) [D1DD3E6D] (AR v2)
Track 22 accurately ripped (confidence 30) [D26BDDB2] (AR v2)
Track 23 accurately ripped (confidence 30) [AC774A99] (AR v2)
Track 24 accurately ripped (confidence 30) [65DFC95C] (AR v2)
Track 25 accurately ripped (confidence 30) [61675416] (AR v2)
Track 26 accurately ripped (confidence 30) [C8C384CC] (AR v2)

All tracks accurately ripped

End of status report

–– CUETools DB Plugin V2.1.6

[CTDB TOCID: qxeawmLIidm0Mqe_wkXrwzrEqP0-] found
Submit result: qxeawmLIidm0Mqe_wkXrwzrEqP0- has been confirmed
Track | CTDB Status
1 | (43/43) Accurately ripped
2 | (43/43) Accurately ripped
3 | (43/43) Accurately ripped
4 | (43/43) Accurately ripped
5 | (43/43) Accurately ripped
6 | (43/43) Accurately ripped
7 | (43/43) Accurately ripped
8 | (43/43) Accurately ripped
9 | (42/43) Accurately ripped
10 | (42/43) Accurately ripped
11 | (43/43) Accurately ripped
12 | (43/43) Accurately ripped
13 | (43/43) Accurately ripped
14 | (43/43) Accurately ripped
15 | (43/43) Accurately ripped
16 | (42/43) Accurately ripped
17 | (43/43) Accurately ripped
18 | (43/43) Accurately ripped
19 | (43/43) Accurately ripped
20 | (43/43) Accurately ripped
21 | (43/43) Accurately ripped
22 | (43/43) Accurately ripped
23 | (43/43) Accurately ripped
24 | (43/43) Accurately ripped
25 | (42/43) Accurately ripped
26 | (43/43) Accurately ripped


==== Log checksum C61E2347CCD9DA855654123C018E71F9DCD562E5694AEA8FD01EFA1309849CC5 ====

Jos Van Veldhoven, Netherlands Bach Society - Johann Sebastian Bach: Johannes-Passion / St. John Passion (2004)

Thanks to the original releaser