Tags
Language
Tags

Joyce Cooling - Keeping Cool (1999)

Posted By: gribovar
Joyce Cooling - Keeping Cool (1999)

Joyce Cooling - Keeping Cool (1999)
EAC Rip | FLAC (tracks+.cue+log) - 234 MB | MP3 CBR 320 kbps (LAME 3.93) - 85 MB | Covers - 9 MB
Genre: Smooth Jazz, Guitar Jazz | RAR 3% Rec. | Label: Heads Up (HUCD 3053)

This slick electric guitarist seemed to come out of nowhere in 1997, becoming The Gavin Report's artist of the year based on the enormous reception of her radio smash "South of Market" and her Heads Up debut Playing It Cool (pun intended). In reality, she had been (and still is) one of the Bay Area's premier club and festival performers, trading off between straight-ahead jazz, Brazilian rhythms, and the funky, lighthearted kind of perfection we find on her even better follow-up (pun still intended and not quite yet wearing thin). Her precise, crisp, and relaxed style serves melodies that are instantly catchy throughout; she and her keyboardist/partner have emerged from years of playing more free-form music in clubs and have the smooth jazz hook thing down pat. What makes this so much more fun than the average genre guitar release are the varied trappings that reflect a myriad of influences. "Callie" bounces in with a retro-bluesy disco groove, Cooling blending her delightful wordless vocalizing and easy punch before giving way to Wagner's piano frolic. The title "Coasting" might imply "laid-back, bland, " but in this case, it finds her being spunky with a hypnotic lead riff over an artsy jazz piano groove. The irrepressible blues pieces "Ain't Life Grand" and "China Basin" give her a chance to show off her Stevie Ray Vaughn influence. When she's not being the queen of perky, Cooling simmers down on the meditative moods of "Out of a Movie" and "Little Five Points," which features her understated but still smart improvisation over Wagner's Rhodes harmony. While more a guitarist who sings than vice versa, the Brazilian-flavored vocal track "Gliding By" - with just her voice and an acoustic guitar - gives a fuller view of one of the genre's premier new talents. Kudos for also finally realizing that she can use her knockout looks and sex appeal in the packaging design.
Tracklist:
01. Callie
02. Want To Coast? (Intro to Coasting)
03. Coasting
04. Ain't Life Grand?
05. Out Of A Movie
06. Before Dawn
07. China Basin
08. Simple Kind Of Love
09. Little Five Points
10. Gliding By

Total time: 36:13

Exact Audio Copy V1.0 beta 3 from 29. August 2011

Отчёт EAC об извлечении, выполненном 22. марта 2012, 15:14

Joyce Cooling / Keeping Cool

Дисковод: TSSTcorpCDW/DVD TS-L462A Adapter: 1 ID: 0

Режим чтения : Достоверность
Использование точного потока : Да
Отключение кэша аудио : Да
Использование указателей C2 : Нет

Коррекция смещения при чтении : 6
Способность читать области Lead-in и Lead-out : Нет
Заполнение пропущенных сэмплов тишиной : Да
Удаление блоков с тишиной в начале и конце : Нет
При вычислениях CRC использовались нулевые сэмплы : Да
Интерфейс : Установленный внешний ASPI-интерфейс
Обработка зазоров : Добавлено к предыдущему треку

Выходной формат : Пользовательский кодировщик
Выбранный битрейт : 128 kBit/s
Качество : Высокий
Добавление ID3-тега : Нет
Утилита сжатия : D:\Exact Audio Copy\FLAC\FLAC.EXE
Дополнительные параметры : -V -8 -T "Genre=%genre%" -T "Artist=%artist%" -T "Title=%title%" -T "Album=%albumtitle%" -T "Date=%year%" -T "Tracknumber=%tracknr%" -T "Comment=%comment%" %source%


TOC извлечённого CD

Трек | Старт | Длительность | Начальный сектор | Конечный сектор
––––––––––––––––––––––––––––––––––-
1 | 0:00.00 | 3:37.31 | 0 | 16305
2 | 3:37.31 | 0:26.73 | 16306 | 18328
3 | 4:04.29 | 3:38.18 | 18329 | 34696
4 | 7:42.47 | 4:29.57 | 34697 | 54928
5 | 12:12.29 | 2:35.02 | 54929 | 66555
6 | 14:47.31 | 4:39.73 | 66556 | 87553
7 | 19:27.29 | 4:03.16 | 87554 | 105794
8 | 23:30.45 | 3:33.43 | 105795 | 121812
9 | 27:04.13 | 5:05.27 | 121813 | 144714
10 | 32:09.40 | 4:04.09 | 144715 | 163023
11 | 38:45.49 | 13:10.71 | 174424 | 233744


Трек 1

Имя файла G:\Joyce Cooling 1999\01. Callie.wav

Длина предзазора 0:00:02.00

Пиковый уровень 99.1 %
Скорость извлечения 1.7 X
Качество трека 100.0 %
CRC теста 0FA86CCD
CRC копии 0FA86CCD
Копирование… OK

Трек 2

Имя файла G:\Joyce Cooling 1999\02. Want to Coast.wav

Длина предзазора 0:00:01.02

Пиковый уровень 75.6 %
Скорость извлечения 0.9 X
Качество трека 100.0 %
CRC теста 22F2B0B6
CRC копии 22F2B0B6
Копирование… OK

Трек 3

Имя файла G:\Joyce Cooling 1999\03. Coasting.wav

Пиковый уровень 99.1 %
Скорость извлечения 1.9 X
Качество трека 100.0 %
CRC теста 727CC40B
CRC копии 727CC40B
Копирование… OK

Трек 4

Имя файла G:\Joyce Cooling 1999\04. Ain't Life Grand.wav

Длина предзазора 0:00:03.04

Пиковый уровень 99.1 %
Скорость извлечения 2.1 X
Качество трека 100.0 %
CRC теста 785F59C1
CRC копии 785F59C1
Копирование… OK

Трек 5

Имя файла G:\Joyce Cooling 1999\05. Out of a Movie.wav

Длина предзазора 0:00:02.03

Пиковый уровень 99.0 %
Скорость извлечения 1.7 X
Качество трека 99.9 %
CRC теста C7B05B83
CRC копии C7B05B83
Копирование… OK

Трек 6

Имя файла G:\Joyce Cooling 1999\06. Before Dawn.wav

Длина предзазора 0:00:02.03

Пиковый уровень 99.1 %
Скорость извлечения 2.3 X
Качество трека 100.0 %
CRC теста 288F1F09
CRC копии 288F1F09
Копирование… OK

Трек 7

Имя файла G:\Joyce Cooling 1999\07. China Basin.wav

Длина предзазора 0:00:01.02

Пиковый уровень 99.1 %
Скорость извлечения 2.4 X
Качество трека 100.0 %
CRC теста 43BA6677
CRC копии 43BA6677
Копирование… OK

Трек 8

Имя файла G:\Joyce Cooling 1999\08. Simple Kind of Love.wav

Длина предзазора 0:00:01.02

Пиковый уровень 99.1 %
Скорость извлечения 2.4 X
Качество трека 100.0 %
CRC теста 2230A0CC
CRC копии 2230A0CC
Копирование… OK

Трек 9

Имя файла G:\Joyce Cooling 1999\09. Little Five Points.wav

Длина предзазора 0:00:02.03

Пиковый уровень 99.0 %
Скорость извлечения 2.7 X
Качество трека 100.0 %
CRC теста A4FAA620
CRC копии A4FAA620
Копирование… OK

Трек 10

Имя файла G:\Joyce Cooling 1999\10. Gliding By.wav

Длина предзазора 0:00:02.03

Пиковый уровень 99.0 %
Скорость извлечения 2.7 X
Качество трека 100.0 %
CRC теста C9C715C0
CRC копии C9C715C0
Копирование… OK

Ошибок не произошло

Конец отчёта

==== Контрольная сумма отчёта D5B50178C0906164A154AEA643A5F75D082AD35AC81975C03FA63A995C76E143 ====

[CUETools log; Date: 14.10.2021 0:49:21; Version: 2.1.4]
CD-Extra data track length 13:10:71.
HDCD: peak extend: none, transient filter: some, gain: none
[CTDB TOCID: W__I6fiIRDW91my_gJsX4XD_vAg-] found.
Track | CTDB Status
1 | (37/58) Accurately ripped
2 | (51/58) Accurately ripped
3 | (37/58) Accurately ripped
4 | (37/58) Accurately ripped
5 | (37/58) Accurately ripped
6 | (36/58) Accurately ripped
7 | (37/58) Accurately ripped
8 | (37/58) Accurately ripped
9 | (37/58) Accurately ripped
10 | (57/58) Accurately ripped
[AccurateRip ID: 000d7ed7-00720c5d-930c2c0b] found.
Track [ CRC | V2 ] Status
01 [c901dd29|398d08a4] (06+06/24) Accurately ripped
02 [88bb9afc|57627b0b] (06+06/24) Accurately ripped
03 [8a9f4cb5|8c41f24e] (06+06/24) Accurately ripped
04 [dc158cc0|d5fdd20b] (06+06/24) Accurately ripped
05 [78ce060e|e8c8aec9] (06+06/24) Accurately ripped
06 [19de957d|306ae152] (06+06/24) Accurately ripped
07 [fc845ab3|94c5cd5d] (06+06/24) Accurately ripped
08 [cf5917ca|60f75e7d] (06+06/24) Accurately ripped
09 [20b36c2c|c19202d0] (06+06/24) Accurately ripped
10 [249becb8|661d125f] (06+06/24) Accurately ripped
Offsetted by -670:
01 [291bb763] (02/24) Accurately ripped
02 [5440fa1b] (02/24) Accurately ripped
03 [51f12924] (02/24) Accurately ripped
04 [72be0adc] (02/24) Accurately ripped
05 [0cf9a244] (02/24) Accurately ripped
06 [41b02b99] (02/24) Accurately ripped
07 [4b56533f] (02/24) Accurately ripped
08 [327f76e2] (02/24) Accurately ripped
09 [02ac3908] (02/24) Accurately ripped
10 [fb9bce70] (02/24) Accurately ripped
Offsetted by -3:
01 [8dd4e4a2] (00/24) No match (V2 was not tested)
02 [283f13a1] (00/24) No match (V2 was not tested)
03 [f6bf6b69] (00/24) No match (V2 was not tested)
04 [52d30e76] (00/24) No match (V2 was not tested)
05 [7ff6b86d] (00/24) No match (V2 was not tested)
06 [bd333333] (00/24) No match (V2 was not tested)
07 [4949b041] (00/24) No match (V2 was not tested)
08 [3b8a8de6] (00/24) No match (V2 was not tested)
09 [32864dc2] (00/24) No match (V2 was not tested)
10 [06b97e4d] (00/24) No match (V2 was not tested)

Track Peak [ CRC32 ] [W/O NULL] [ LOG ]
– 99,1 [486F1897] [31C34980]
01 99,1 [0FA86CCD] [7A4A3BB9] CRC32
02 75,6 [22F2B0B6] [1E92CD83] CRC32
03 99,1 [727CC40B] [7898F82A] CRC32
04 99,1 [785F59C1] [72C48381] CRC32
05 99,0 [C7B05B83] [C181159A] CRC32
06 99,1 [288F1F09] [8691F4D2] CRC32
07 99,1 [43BA6677] [891F1A3C] CRC32
08 99,1 [2230A0CC] [F7DBE71D] CRC32
09 99,0 [A4FAA620] [043330BD] CRC32
10 99,0 [C9C715C0] [E7D682B8] CRC32

Thanks to petrash1978