Tags
Language
Tags

Jozef Dumoulin & Orca Noise Unit - A Beginner's Guide to Diving and Flying (2018) {Yolk Records}

Posted By: tiburon
Jozef Dumoulin & Orca Noise Unit - A Beginner's Guide to Diving and Flying (2018) {Yolk Records}

Jozef Dumoulin & Orca Noise Unit - A Beginner's Guide to Diving and Flying (2018) {Yolk Records}
EAC 1.3 | FLAC tracks level 8 | Cue+Log+M3U | Full Scans 300dpi | 251MB + 5% Recovery
MP3 CBR 320 Kbps | 118MB + 5% Recovery
Genre: Avant-Garde Jazz

Orca Noise Unit is based on an anagram of —oneironautics—, which refers to the ability to travel within a dream on a conscious basis. Those who have already kept a dream journal know what it feels like to go back and read over older parts. Some dream accounts have a lot of details, others evoke not much more than just a vibe. Some can be read like a full story, whereas others have no beginning, or no end, or neither. Sometimes we were genuinely lucid at the moment of the dream - or at least had a clear perception of things - whereas at other moments we were totally immersed in the projected reality.
Track List
01. As Above, So Below 5:15
02. The Garden 3:42
03. Imagined Rotation 1:40
04. The Hand 3:18
05. Second Room 2:27
06. Little Lemon 4:36
07. Mild 5:06
08. Peering And Palpation 0:55
09. Breathing Under Water 2:26
10. The Bristlecone Pine 2:46
11. The Other Side Of The Month 6:12
12. Something About A Horse 0:26
13. Little Flower Expanding 4:56
14. Acknowledgements 1:38
15. As Below, So Above 6:16

musicians
Jozef Dumoulin - piano, percussion
Sylvaine Hélary - flutes
Antonin Tri Hoang - saxophone, clarinete, percussion
Bruno Chevillon - bass
Tom Gouband - percussions


Exact Audio Copy V1.3 from 2. September 2016

EAC extraction logfile from 18. May 2018, 11:14

Jozef Dumoulin & Orca Noise Unit / A Beginner's Guide To Diving And Flying

Used drive : ATAPI iHBS112 2 Adapter: 1 ID: 2

Read mode : Secure
Utilize accurate stream : Yes
Defeat audio cache : Yes
Make use of C2 pointers : No

Read offset correction : 6
Overread into Lead-In and Lead-Out : No
Fill up missing offset samples with silence : Yes
Delete leading and trailing silent blocks : No
Null samples used in CRC calculations : Yes
Used interface : Native Win32 interface for Win NT & 2000
Gap handling : Appended to previous track

Used output format : User Defined Encoder
Selected bitrate : 768 kBit/s
Quality : High
Add ID3 tag : No
Command line compressor : C:\Program Files (x86)\Exact Audio Copy\FLAC\FLAC.EXE
Additional command line options : -8 -V -T "ARTIST=%artist%" -T "TITLE=%title%" -T "ALBUM=%albumtitle%" -T "DATE=%year%" -T "TRACKNUMBER=%tracknr%" -T "GENRE=%genre%" -T "PERFORMER=%albuminterpret%" -T "COMPOSER=%composer%" -T "ALBUMARTIST=%albumartist%" -T "DISCNUMBER=%cdnumber%" -T "TOTALDISCS=%totalcds%" -T "TOTALTRACKS=%numtracks%" -T "COMMENT=EAC Secure Mode, Test & Copy, AccurateRip, FLAC -8" %source% -o %dest%


TOC of the extracted CD

Track | Start | Length | Start sector | End sector
––––––––––––––––––––––––––––-
1 | 0:00.00 | 5:14.38 | 0 | 23587
2 | 5:14.38 | 3:41.39 | 23588 | 40201
3 | 8:56.02 | 1:40.01 | 40202 | 47702
4 | 10:36.03 | 3:17.38 | 47703 | 62515
5 | 13:53.41 | 2:26.38 | 62516 | 73503
6 | 16:20.04 | 4:36.01 | 73504 | 94204
7 | 20:56.05 | 5:06.01 | 94205 | 117155
8 | 26:02.06 | 0:55.01 | 117156 | 121281
9 | 26:57.07 | 2:25.38 | 121282 | 132194
10 | 29:22.45 | 2:46.01 | 132195 | 144645
11 | 32:08.46 | 6:11.39 | 144646 | 172509
12 | 38:20.10 | 0:26.01 | 172510 | 174460
13 | 38:46.11 | 4:56.01 | 174461 | 196661
14 | 43:42.12 | 1:38.01 | 196662 | 204012
15 | 45:20.13 | 6:16.01 | 204013 | 232213


Track 1

Filename G:\DL\Jozef Dumoulin & Orca Noise Unit - A Beginner's Guide To Diving And Flying (2018) [FLAC]\01 - As Above, So Below.wav

Pre-gap length 0:00:02.00

Peak level 81.1 %
Extraction speed 5.3 X
Track quality 100.0 %
Test CRC FCFC18EF
Copy CRC FCFC18EF
Track not present in AccurateRip database
Copy OK

Track 2

Filename G:\DL\Jozef Dumoulin & Orca Noise Unit - A Beginner's Guide To Diving And Flying (2018) [FLAC]\02 - The Garden.wav

Pre-gap length 0:00:00.38

Peak level 43.2 %
Extraction speed 5.6 X
Track quality 100.0 %
Test CRC 0976549F
Copy CRC 0976549F
Track not present in AccurateRip database
Copy OK

Track 3

Filename G:\DL\Jozef Dumoulin & Orca Noise Unit - A Beginner's Guide To Diving And Flying (2018) [FLAC]\03 - Imagined Rotation.wav

Pre-gap length 0:00:02.38

Peak level 69.9 %
Extraction speed 5.0 X
Track quality 100.0 %
Test CRC 457F98BE
Copy CRC 457F98BE
Track not present in AccurateRip database
Copy OK

Track 4

Filename G:\DL\Jozef Dumoulin & Orca Noise Unit - A Beginner's Guide To Diving And Flying (2018) [FLAC]\04 - The Hand.wav

Pre-gap length 0:00:03.00

Peak level 96.6 %
Extraction speed 5.0 X
Track quality 99.9 %
Test CRC 97A9DCC9
Copy CRC 97A9DCC9
Track not present in AccurateRip database
Copy OK

Track 5

Filename G:\DL\Jozef Dumoulin & Orca Noise Unit - A Beginner's Guide To Diving And Flying (2018) [FLAC]\05 - Second Room.wav

Pre-gap length 0:00:01.00

Peak level 96.6 %
Extraction speed 6.1 X
Track quality 100.0 %
Test CRC DF41021B
Copy CRC DF41021B
Track not present in AccurateRip database
Copy OK

Track 6

Filename G:\DL\Jozef Dumoulin & Orca Noise Unit - A Beginner's Guide To Diving And Flying (2018) [FLAC]\06 - Little Lemon.wav

Pre-gap length 0:00:02.37

Peak level 96.6 %
Extraction speed 7.1 X
Track quality 100.0 %
Test CRC AFBFF2C8
Copy CRC AFBFF2C8
Track not present in AccurateRip database
Copy OK

Track 7

Filename G:\DL\Jozef Dumoulin & Orca Noise Unit - A Beginner's Guide To Diving And Flying (2018) [FLAC]\07 - Mild.wav

Pre-gap length 0:00:04.00

Peak level 70.5 %
Extraction speed 7.6 X
Track quality 100.0 %
Test CRC E82E8582
Copy CRC E82E8582
Track not present in AccurateRip database
Copy OK

Track 8

Filename G:\DL\Jozef Dumoulin & Orca Noise Unit - A Beginner's Guide To Diving And Flying (2018) [FLAC]\08 - Peering And Palpation.wav

Pre-gap length 0:00:03.00

Peak level 86.1 %
Extraction speed 5.2 X
Track quality 100.0 %
Test CRC 29B9CF63
Copy CRC 29B9CF63
Track not present in AccurateRip database
Copy OK

Track 9

Filename G:\DL\Jozef Dumoulin & Orca Noise Unit - A Beginner's Guide To Diving And Flying (2018) [FLAC]\09 - Breathing Under Water.wav

Pre-gap length 0:00:01.00

Peak level 57.2 %
Extraction speed 7.2 X
Track quality 100.0 %
Test CRC 8DAD79B4
Copy CRC 8DAD79B4
Track not present in AccurateRip database
Copy OK

Track 10

Filename G:\DL\Jozef Dumoulin & Orca Noise Unit - A Beginner's Guide To Diving And Flying (2018) [FLAC]\10 - The Bristlecone Pine.wav

Pre-gap length 0:00:00.37

Peak level 96.6 %
Extraction speed 6.0 X
Track quality 99.9 %
Test CRC 4F1B3D98
Copy CRC 4F1B3D98
Track not present in AccurateRip database
Copy OK

Track 11

Filename G:\DL\Jozef Dumoulin & Orca Noise Unit - A Beginner's Guide To Diving And Flying (2018) [FLAC]\11 - The Other Side Of The Month.wav

Pre-gap length 0:00:01.00

Peak level 88.9 %
Extraction speed 7.8 X
Track quality 99.9 %
Test CRC B41B33C4
Copy CRC B41B33C4
Track not present in AccurateRip database
Copy OK

Track 12

Filename G:\DL\Jozef Dumoulin & Orca Noise Unit - A Beginner's Guide To Diving And Flying (2018) [FLAC]\12 - Something About A Horse.wav

Pre-gap length 0:00:02.38

Peak level 54.9 %
Extraction speed 4.2 X
Track quality 100.0 %
Test CRC 2424D6F0
Copy CRC 2424D6F0
Track not present in AccurateRip database
Copy OK

Track 13

Filename G:\DL\Jozef Dumoulin & Orca Noise Unit - A Beginner's Guide To Diving And Flying (2018) [FLAC]\13 - Little Flower Expanding.wav

Pre-gap length 0:00:01.00

Peak level 70.9 %
Extraction speed 8.9 X
Track quality 100.0 %
Test CRC 828A2380
Copy CRC 828A2380
Track not present in AccurateRip database
Copy OK

Track 14

Filename G:\DL\Jozef Dumoulin & Orca Noise Unit - A Beginner's Guide To Diving And Flying (2018) [FLAC]\14 - Acknowledgements.wav

Pre-gap length 0:04:54.18

Peak level 96.7 %
Extraction speed 7.5 X
Track quality 100.0 %
Test CRC AC1AD6CF
Copy CRC AC1AD6CF
Track not present in AccurateRip database
Copy OK

Track 15

Filename G:\DL\Jozef Dumoulin & Orca Noise Unit - A Beginner's Guide To Diving And Flying (2018) [FLAC]\15 - As Below, So Above.wav

Pre-gap length 0:06:32.19

Peak level 70.9 %
Extraction speed 9.7 X
Track quality 100.0 %
Test CRC DEBB0913
Copy CRC DEBB0913
Track not present in AccurateRip database
Copy OK


None of the tracks are present in the AccurateRip database

No errors occurred

End of status report

–– CUETools DB Plugin V2.1.6

[CTDB TOCID: q75C06Bfg6t.zqz1HUb93SuPVJ8-] disk not present in database
Submit result: q75C06Bfg6t.zqz1HUb93SuPVJ8- has been uploaded


==== Log checksum 1164A5E7CA943E7B6EE8AC657965A65F9B2EF097C911CB9867E0CA372883CDF7 ====


foobar2000 1.3.13 / Dynamic Range Meter 1.1.1
log date: 2018-05-18 15:11:58

––––––––––––––––––––––––––––––––––––––––
Analyzed: Jozef Dumoulin & Orca Noise Unit / A Beginner's Guide To Diving And Flying
––––––––––––––––––––––––––––––––––––––––

DR Peak RMS Duration Track
––––––––––––––––––––––––––––––––––––––––
DR14 -1.81 dB -21.55 dB 5:15 01-As Above, So Below
DR13 -7.27 dB -25.49 dB 3:42 02-The Garden
DR14 -3.10 dB -22.62 dB 1:40 03-Imagined Rotation
DR15 -0.30 dB -18.19 dB 3:18 04-The Hand
DR16 -0.30 dB -20.84 dB 2:27 05-Second Room
DR13 -0.29 dB -17.65 dB 4:36 06-Little Lemon
DR16 -3.03 dB -26.21 dB 5:06 07-Mild
DR16 -1.30 dB -24.49 dB 0:55 08-Peering And Palpation
DR14 -4.84 dB -23.98 dB 2:26 09-Breathing Under Water
DR13 -0.30 dB -16.22 dB 2:46 10-The Bristlecone Pine
DR14 -1.01 dB -20.90 dB 6:12 11-The Other Side Of The Month
DR9 -5.20 dB -19.21 dB 0:26 12-Something About A Horse
DR23 -2.98 dB -32.39 dB 4:56 13-Little Flower Expanding
DR17 -0.29 dB -21.37 dB 1:38 14-Acknowledgements
DR13 -2.98 dB -22.41 dB 6:16 15-As Below, So Above
––––––––––––––––––––––––––––––––––––––––

Number of tracks: 15
Official DR value: DR15

Samplerate: 44100 Hz
Channels: 2
Bits per sample: 16
Bitrate: 641 kbps
Codec: FLAC
================================================================================

Jozef Dumoulin & Orca Noise Unit - A Beginner's Guide to Diving and Flying (2018) {Yolk Records}
Jozef Dumoulin & Orca Noise Unit - A Beginner's Guide to Diving and Flying (2018) {Yolk Records}


Thanks to the original ripper