Tags
Language
Tags
April 2024
Su Mo Tu We Th Fr Sa
31 1 2 3 4 5 6
7 8 9 10 11 12 13
14 15 16 17 18 19 20
21 22 23 24 25 26 27
28 29 30 1 2 3 4

Juan Bautista Otero, Real Compañía Ópera de Cámara - Vicent Martín y Soler: Il Sogno; La Dora festeggiante (2010)

Posted By: ArlegZ
Juan Bautista Otero, Real Compañía Ópera de Cámara - Vicent Martín y Soler: Il Sogno; La Dora festeggiante (2010)

Juan Bautista Otero, Real Compañía Ópera de Cámara - Vicent Martín y Soler: Il Sogno; La Dora festeggiante (2010)
EAC | FLAC | Tracks (Cue & Log) ~ 446 Mb | Total time: 32:30+45:35 | Scans included
Classical | Label: RCOC | # 1001.2 | Recorded: 2010

This CD from the Real Compañía Ópera de Cámara presents two cantatas by the Spanish composer Vicente Martín y Soler - Il Sogno and La Dora festeggiante. Il Sogno, written in 1787, is the only example of collaboration of between Martín y Soler and the great librettist Lorenzo Da Ponte. These works are like a small fresco of this period of transformation. La Dora represents the end of a period, in which the Olympic gods serve as a model to human behavior, while Il Sogno, is, deep down, a pre-romantic spiritual work, in which the nymphs are no longer unattainable beings, beings that do not suffer or have human passions but on the contrary, they embody them, they live them in their own skin in spite of being in an idyllic place.

Performer:
Sunhae Im, soprano
Raffaella Milanesi, soprano
Magnus Staveland, tenor
Real Compañía Ópera de Cámara
Juan Bautista Otero, conductor

Tracklist:
Vicent Martín y Soler (1754-1806)
CD1:
La Dora festeggiante
01. Sinfonia
02. Scene 1. Recitativo secco. Dove, o signor, ne guidi?
03. Scene 1. Aria. Questo è il suolo, amici dei
04. Scene 2. Recitativo secco. Ah! sì, dell'alma Dora
05. Scene 2. Accompagnato. Del sangue Estense.
06. Scene 2. Aria. Ah! qual mi sento in seno
07. Scene 3. Recitativo secco. Come! Del gran Giuseppe
08. Scene 3. Aria. Di Fernando ho ancora impressa
09. Scene 4. Accompagnato. Non più, numi del ciel
10. Scene 4. Terzetto. Ah! qual sarà il contento
CD2:
Il Sogno
01. Sinfonia
02. Scene 1. Accompagnato. Nice, Nice, ove sei?
03. Scene 1. Aria. Se dal tormento
04. Scene 2. Accompagnato. Ah! taci, Egle diletta
05. Scene 2. Aria. Impresso ho nell'alma
06. Scene 3. Recitativo secco. Quasi di tenerezza
07. Scene 3. Duetto. Perdono ti chiedo
08. Scene 4. part Accompagnato. Ma qual da quella
09. Scene 4. Duetto. Mira il giorno oscurarsi d'intorno
10. Scene 5. Recitativo secco. Ma la suora ove sia?
11. Scene 5. Accompagnato. E dopo tanto amore
12. Scene 5. Aria. Non temer, o mio tesoro
13. Scene 6. Recitativo secco. Nice, mia cara Nice
14. Scene 6. Terzetto. Il fine delle pene


Exact Audio Copy V1.1 from 23. June 2015

EAC extraction logfile from 27. August 2019, 15:03

Real Compañía Opera de Cámara / Martin y Soler - La dora festeggiante

Used drive : HL-DT-STDVD+-RW GU90N Adapter: 1 ID: 0

Read mode : Secure
Utilize accurate stream : Yes
Defeat audio cache : Yes
Make use of C2 pointers : No

Read offset correction : 102
Overread into Lead-In and Lead-Out : No
Fill up missing offset samples with silence : Yes
Delete leading and trailing silent blocks : No
Null samples used in CRC calculations : Yes
Used interface : Native Win32 interface for Win NT & 2000
Gap handling : Appended to previous track

Used output format : User Defined Encoder
Selected bitrate : 1024 kBit/s
Quality : High
Add ID3 tag : No
Command line compressor : C:\Program Files (x86)\Exact Audio Copy\Flac\flac.exe
Additional command line options : -8 -V -T "ARTIST=%artist%" -T "TITLE=%title%" -T "ALBUM=%albumtitle%" -T "DATE=%year%" -T "TRACKNUMBER=%tracknr%" -T "GENRE=%genre%" -T "PERFORMER=%albuminterpret%" -T "COMPOSER=%composer%" %haslyrics%–tag-from-file=LYRICS="%lyricsfile%"%haslyrics% -T "ALBUMARTIST=%albumartist%" -T "DISCNUMBER=%cdnumber%" -T "TOTALDISCS=%totalcds%" -T "TOTALTRACKS=%numduckjammytracks%" -T "COMMENT=%comment%" %source% -o %dest%


TOC of the extracted CD

Track | Start | Length | Start sector | End sector
––––––––––––––––––––––––––––-
1 | 0:00.00 | 7:52.44 | 0 | 35443
2 | 7:52.44 | 1:03.27 | 35444 | 40195
3 | 8:55.71 | 4:31.62 | 40196 | 60582
4 | 13:27.58 | 1:20.16 | 60583 | 66598
5 | 14:47.74 | 0:52.31 | 66599 | 70529
6 | 15:40.30 | 3:36.51 | 70530 | 86780
7 | 19:17.06 | 0:43.42 | 86781 | 90047
8 | 20:00.48 | 5:45.05 | 90048 | 115927
9 | 25:45.53 | 0:29.30 | 115928 | 118132
10 | 26:15.08 | 5:08.04 | 118133 | 141236


Track 1

Filename C:\E\01 Sinfonia.wav

Pre-gap length 0:00:02.00

Peak level 96.6 %
Extraction speed 1.5 X
Track quality 100.0 %
Test CRC 6793C270
Copy CRC 6793C270
Accurately ripped (confidence 3) [AD7AE459] (AR v2)
Copy OK

Track 2

Filename C:\E\02 Scena 1 - Recitativo secco 'Dove, o signor. ne guidi'.wav

Peak level 61.6 %
Extraction speed 1.1 X
Track quality 100.0 %
Test CRC 39E51534
Copy CRC 39E51534
Accurately ripped (confidence 3) [1E4ACFD6] (AR v2)
Copy OK

Track 3

Filename C:\E\03 Aria di Giove 'Questo è il suolo, amici dei'.wav

Peak level 97.7 %
Extraction speed 1.6 X
Track quality 100.0 %
Test CRC AE572B51
Copy CRC AE572B51
Accurately ripped (confidence 3) [E6E9949B] (AR v2)
Copy OK

Track 4

Filename C:\E\04 Scena 2 - Recitativo secco 'Ah! si, dell'alma Dora'.wav

Peak level 58.9 %
Extraction speed 1.3 X
Track quality 100.0 %
Test CRC 96BE68DC
Copy CRC 96BE68DC
Accurately ripped (confidence 3) [67D65399] (AR v2)
Copy OK

Track 5

Filename C:\E\05 Accompagnato di Minerva 'Del sengue Estense'.wav

Peak level 94.6 %
Extraction speed 1.1 X
Track quality 100.0 %
Test CRC 1319FA47
Copy CRC 1319FA47
Accurately ripped (confidence 3) [2DF0F6EF] (AR v2)
Copy OK

Track 6

Filename C:\E\06 Aria di Minerva 'Ah! qual mi sento in seno'.wav

Peak level 97.7 %
Extraction speed 1.8 X
Track quality 100.0 %
Test CRC 281D4BE7
Copy CRC 281D4BE7
Accurately ripped (confidence 3) [4D609DD3] (AR v2)
Copy OK

Track 7

Filename C:\E\07 Scena 3 - Recitativo secco 'Come! Del gran Giuseppe'.wav

Peak level 41.3 %
Extraction speed 1.1 X
Track quality 100.0 %
Test CRC 7419E34E
Copy CRC 7419E34E
Accurately ripped (confidence 3) [1B25E5C3] (AR v2)
Copy OK

Track 8

Filename C:\E\08 Aria di Apollo 'Di Fernanado ho ancora impressa'.wav

Peak level 97.7 %
Extraction speed 2.0 X
Track quality 100.0 %
Test CRC CCAA702A
Copy CRC CCAA702A
Accurately ripped (confidence 3) [1BA2293D] (AR v2)
Copy OK

Track 9

Filename C:\E\09 Scena 4 - Accompagnato di di Giove.wav

Peak level 87.0 %
Extraction speed 0.9 X
Track quality 100.0 %
Test CRC D3757474
Copy CRC D3757474
Accurately ripped (confidence 3) [EC48E1FE] (AR v2)
Copy OK

Track 10

Filename C:\E\10 Terzetto Apollo-Minerva-Giove 'Ah! qual sarà il contento'.wav

Peak level 97.7 %
Extraction speed 2.1 X
Track quality 100.0 %
Test CRC 59BC11CE
Copy CRC 59BC11CE
Accurately ripped (confidence 3) [D5B045E6] (AR v2)
Copy OK


All tracks accurately ripped

No errors occurred

End of status report

–– CUETools DB Plugin V2.1.6

[CTDB TOCID: cs4UuG6wcdlmiGTKEXLaSqYiisk-] found
Submit result: cs4UuG6wcdlmiGTKEXLaSqYiisk- has been confirmed
Track | CTDB Status
1 | (3/3) Accurately ripped
2 | (3/3) Accurately ripped
3 | (3/3) Accurately ripped
4 | (3/3) Accurately ripped
5 | (3/3) Accurately ripped
6 | (3/3) Accurately ripped
7 | (3/3) Accurately ripped
8 | (3/3) Accurately ripped
9 | (3/3) Accurately ripped
10 | (3/3) Accurately ripped


==== Log checksum BA94B6007D46294C82585A4232DB633744532865D551DB76FC013437E3CEB5A1 ====


Exact Audio Copy V1.1 from 23. June 2015

EAC extraction logfile from 27. August 2019, 16:06

Real Compañía Opera de Cámara / Martin y Soler - Il Sogno

Used drive : HL-DT-STDVD+-RW GU90N Adapter: 1 ID: 0

Read mode : Secure
Utilize accurate stream : Yes
Defeat audio cache : Yes
Make use of C2 pointers : No

Read offset correction : 102
Overread into Lead-In and Lead-Out : No
Fill up missing offset samples with silence : Yes
Delete leading and trailing silent blocks : No
Null samples used in CRC calculations : Yes
Used interface : Native Win32 interface for Win NT & 2000
Gap handling : Appended to previous track

Used output format : User Defined Encoder
Selected bitrate : 1024 kBit/s
Quality : High
Add ID3 tag : No
Command line compressor : C:\Program Files (x86)\Exact Audio Copy\Flac\flac.exe
Additional command line options : -8 -V -T "ARTIST=%artist%" -T "TITLE=%title%" -T "ALBUM=%albumtitle%" -T "DATE=%year%" -T "TRACKNUMBER=%tracknr%" -T "GENRE=%genre%" -T "PERFORMER=%albuminterpret%" -T "COMPOSER=%composer%" %haslyrics%–tag-from-file=LYRICS="%lyricsfile%"%haslyrics% -T "ALBUMARTIST=%albumartist%" -T "DISCNUMBER=%cdnumber%" -T "TOTALDISCS=%totalcds%" -T "TOTALTRACKS=%numduckjammytracks%" -T "COMMENT=%comment%" %source% -o %dest%


TOC of the extracted CD

Track | Start | Length | Start sector | End sector
––––––––––––––––––––––––––––-
1 | 0:00.00 | 4:17.30 | 0 | 19304
2 | 4:17.30 | 4:33.04 | 19305 | 39783
3 | 8:50.34 | 4:29.25 | 39784 | 59983
4 | 13:19.59 | 2:59.59 | 59984 | 73467
5 | 16:19.43 | 4:16.67 | 73468 | 92734
6 | 20:36.35 | 0:35.53 | 92735 | 95412
7 | 21:12.13 | 2:16.49 | 95413 | 105661
8 | 23:28.62 | 0:43.31 | 105662 | 108917
9 | 24:12.18 | 7:36.68 | 108918 | 143185
10 | 31:49.11 | 0:37.71 | 143186 | 146031
11 | 32:27.07 | 1:08.42 | 146032 | 151173
12 | 33:35.49 | 4:07.51 | 151174 | 169749
13 | 37:43.25 | 0:48.17 | 169750 | 173366
14 | 38:31.42 | 5:48.04 | 173367 | 199470


Track 1

Filename C:\E\01 Sinfonia.wav

Pre-gap length 0:00:02.00

Peak level 97.7 %
Extraction speed 1.3 X
Track quality 100.0 %
Test CRC E29FF67D
Copy CRC E29FF67D
Accurately ripped (confidence 4) [C2743250] (AR v2)
Copy OK

Track 2

Filename C:\E\02 Scena 1 - Accompagnato di Egle-Nice 'Nice, Nice, ove sei'.wav

Peak level 97.7 %
Extraction speed 1.5 X
Track quality 100.0 %
Test CRC 089C32CD
Copy CRC 089C32CD
Accurately ripped (confidence 4) [77E9215A] (AR v2)
Copy OK

Track 3

Filename C:\E\03 Aria di Egle 'Se dal tormento'.wav

Peak level 97.7 %
Extraction speed 1.7 X
Track quality 100.0 %
Test CRC D798315D
Copy CRC D798315D
Accurately ripped (confidence 4) [7C1082E3] (AR v2)
Copy OK

Track 4

Filename C:\E\04 Scena 2 - Accompagnato di Egle-Nice 'Ah! taci, Egle diletta'.wav

Peak level 97.7 %
Extraction speed 1.6 X
Track quality 100.0 %
Test CRC F4441EB1
Copy CRC F4441EB1
Accurately ripped (confidence 4) [8481BFCB] (AR v2)
Copy OK

Track 5

Filename C:\E\05 Aria di Nice 'Impresso ho nell'alma'.wav

Peak level 97.7 %
Extraction speed 1.8 X
Track quality 100.0 %
Test CRC 640E5CB9
Copy CRC 640E5CB9
Accurately ripped (confidence 4) [E3D7A869] (AR v2)
Copy OK

Track 6

Filename C:\E\06 Scene 3 - Recitativo secco 'Quasi di tenerezza'.wav

Peak level 97.7 %
Extraction speed 1.0 X
Track quality 100.0 %
Test CRC 38558F7E
Copy CRC 38558F7E
Accurately ripped (confidence 4) [50680077] (AR v2)
Copy OK

Track 7

Filename C:\E\07 Duetto di Egle-Nice 'Perdono ti chiedo'.wav

Peak level 97.7 %
Extraction speed 1.7 X
Track quality 100.0 %
Test CRC 5F1EF73C
Copy CRC 5F1EF73C
Accurately ripped (confidence 4) [81D9C60B] (AR v2)
Copy OK

Track 8

Filename C:\E\08 Scene 4 - Accompagnato di Nice-Egle-Fileno 'Ma qual da quella'.wav

Peak level 94.1 %
Extraction speed 1.1 X
Track quality 100.0 %
Test CRC F66A1113
Copy CRC F66A1113
Accurately ripped (confidence 4) [99F9B9A6] (AR v2)
Copy OK

Track 9

Filename C:\E\09 Duetto di Nice-Fileno 'Mira il giorno oscurarsi d'intorno'.wav

Peak level 100.0 %
Extraction speed 2.2 X
Track quality 100.0 %
Test CRC 9641A23C
Copy CRC 9641A23C
Accurately ripped (confidence 4) [A1998CBB] (AR v2)
Copy OK

Track 10

Filename C:\E\10 Scene 5 - Recitativo secco 'Ma la suora ove sia'.wav

Peak level 97.7 %
Extraction speed 1.2 X
Track quality 100.0 %
Test CRC 44AD37C6
Copy CRC 44AD37C6
Accurately ripped (confidence 4) [712B4E39] (AR v2)
Copy OK

Track 11

Filename C:\E\11 Accompagnato di Fileno 'E dopo tanto amore'.wav

Peak level 82.5 %
Extraction speed 1.5 X
Track quality 100.0 %
Test CRC 16A23222
Copy CRC 16A23222
Accurately ripped (confidence 4) [4A94F42C] (AR v2)
Copy OK

Track 12

Filename C:\E\12 Aria di Fileno 'Non temer, o mio tesoro'.wav

Peak level 97.7 %
Extraction speed 2.0 X
Track quality 99.9 %
Test CRC A5034B5D
Copy CRC A5034B5D
Accurately ripped (confidence 4) [C9E62851] (AR v2)
Copy OK

Track 13

Filename C:\E\13 Scene 6 - Recitativo secco 'Nice, mia cara Nice'.wav

Peak level 83.3 %
Extraction speed 1.5 X
Track quality 100.0 %
Test CRC 526C4596
Copy CRC 526C4596
Accurately ripped (confidence 4) [D87F2493] (AR v2)
Copy OK

Track 14

Filename C:\E\14 Terzetto di Nice-Egle-Fileno 'Il fine delle pene'.wav

Peak level 100.0 %
Extraction speed 2.4 X
Track quality 100.0 %
Test CRC 4E58C572
Copy CRC 4E58C572
Accurately ripped (confidence 4) [C95AE29B] (AR v2)
Copy OK


All tracks accurately ripped

No errors occurred

End of status report

–– CUETools DB Plugin V2.1.6

[CTDB TOCID: LInsG2Tgp7h2M.sJUmJmZM07n8A-] found
Submit result: LInsG2Tgp7h2M.sJUmJmZM07n8A- has been confirmed
Track | CTDB Status
1 | (3/3) Accurately ripped
2 | (3/3) Accurately ripped
3 | (3/3) Accurately ripped
4 | (3/3) Accurately ripped
5 | (3/3) Accurately ripped
6 | (3/3) Accurately ripped
7 | (3/3) Accurately ripped
8 | (3/3) Accurately ripped
9 | (3/3) Accurately ripped
10 | (3/3) Accurately ripped
11 | (3/3) Accurately ripped
12 | (3/3) Accurately ripped
13 | (3/3) Accurately ripped
14 | (3/3) Accurately ripped


==== Log checksum 416D175B7EA57A774FAB739EF0FAFB650FCEDEFF22C1052D71BFF036286AF2EA ====

Juan Bautista Otero, Real Compañía Ópera de Cámara - Vicent Martín y Soler: Il Sogno; La Dora festeggiante (2010)

Thanks to the original releaser