Judas Priest - Hero, Hero (1981) [2014, Victor Entertainment Japan, VICP-78022]

Posted By: v3122
Judas Priest - Hero, Hero (1981) [2014, Victor Entertainment Japan, VICP-78022]

Judas Priest - Hero, Hero (1981)
EAC | Flac(Image) + Cue + Log & M4A(Tracks) & MP3 CBR 320Kbps
Victor Entertainment Japan, VICP-78022 | ~ 462 or 464 or 169 Mb | Scans(png) -> 223 Mb
Heavy Metal

This collection encapsulates Judas Priest's debut (ROCKA ROLLA) and a majority of their classic sophomore album (SAD WINGS OF DESTINY) for Gull Records, along with an early version of "Diamonds and Rust," and mixes them all up in the running order. Seeing as it's missing "Epitaph," "Island of Domination" and the immortal "Ripper" from SAD WINGS, this CD does not allow one to get the band's first two albums in one package. However, the ROCKA ROLLA tracks have been remixed (some fans argue that they are better) and the title track re-edited, and those changes along with the track arrangement and fantasy-inspired cover art make this package worthwhile for obsessive collectors, even though the gatefold vinyl edition was actually more visually striking…
Judas Priest - Hero, Hero (1981):

Judas Priest - Hero, Hero (1981) [2014, Victor Entertainment Japan, VICP-78022]

Tracklist:

01. Prelude 02:01
02. Tyrant 04:27
03. Rocka Rolla 03:48
04. One For The Road 04:25
05. Victim Of Changes 07:47
06. Dying To Meet You 06:15
07. Never Satisfied 04:49
08. Dreamer Deceiver 05:52
09. Deceiver 02:46
10. Winter 02:57
11. Deep Freeze 02:22
12. Winter Retreat 01:29
13. Cheater 02:54
14. Diamonds And Rust 03:18
15. Run Of The Mill 08:21
16. Genocide 05:42
17. Caviar And Meths 02:07

Exact Audio Copy V1.0 beta 3 from 29. August 2011

EAC extraction logfile from 14. September 2014, 11:13

Judas Priest / Hero, Hero PT-SHM

Used drive : PLEXTOR BD-R PX-B950SA Adapter: 6 ID: 0

Read mode : Secure
Utilize accurate stream : Yes
Defeat audio cache : Yes
Make use of C2 pointers : No

Read offset correction : 6
Overread into Lead-In and Lead-Out : No
Fill up missing offset samples with silence : Yes
Delete leading and trailing silent blocks : No
Null samples used in CRC calculations : Yes
Used interface : Native Win32 interface for Win NT & 2000

Used output format : Internal WAV Routines
Sample format : 44.100 Hz; 16 Bit; Stereo


TOC of the extracted CD

Track | Start | Length | Start sector | End sector
––––––––––––––––––––––––––––-
1 | 0:00.00 | 2:01.47 | 0 | 9121
2 | 2:01.47 | 4:27.65 | 9122 | 29211
3 | 6:29.37 | 3:48.45 | 29212 | 46356
4 | 10:18.07 | 4:25.28 | 46357 | 66259
5 | 14:43.35 | 7:47.45 | 66260 | 101329
6 | 22:31.05 | 6:15.52 | 101330 | 129506
7 | 28:46.57 | 4:49.05 | 129507 | 151186
8 | 33:35.62 | 5:52.70 | 151187 | 177656
9 | 39:28.57 | 2:46.03 | 177657 | 190109
10 | 42:14.60 | 2:57.52 | 190110 | 203436
11 | 45:12.37 | 2:22.50 | 203437 | 214136
12 | 47:35.12 | 1:29.70 | 214137 | 220881
13 | 49:05.07 | 2:54.65 | 220882 | 233996
14 | 51:59.72 | 3:18.15 | 233997 | 248861
15 | 55:18.12 | 8:21.73 | 248862 | 286509
16 | 63:40.10 | 5:42.10 | 286510 | 312169
17 | 69:22.20 | 2:07.60 | 312170 | 321754


Range status and errors

Selected range

Filename C:\Users\Meijin\Desktop\ALLexxess\Judas Priest\1981 Hero, Hero (Mini LP PT-SHM Victor Japan 2014)\Judas Priest - Hero, Hero PT-SHM.wav

Peak level 100.0 %
Extraction speed 8.5 X
Range quality 99.9 %
Test CRC BCE378B0
Copy CRC BCE378B0
Copy OK

No errors occurred


AccurateRip summary

Track 1 not present in database
Track 2 not present in database
Track 3 not present in database
Track 4 not present in database
Track 5 not present in database
Track 6 not present in database
Track 7 not present in database
Track 8 not present in database
Track 9 not present in database
Track 10 not present in database
Track 11 not present in database
Track 12 not present in database
Track 13 not present in database
Track 14 not present in database
Track 15 not present in database
Track 16 not present in database
Track 17 not present in database

None of the tracks are present in the AccurateRip database

End of status report

Judas Priest - Hero, Hero (1981) [2014, Victor Entertainment Japan, VICP-78022]

All thanks go to ALLexxess