Subcategories

Judas Priest - Turbo 30 (Remastered 30th Anniversary Deluxe Edition) (1986/2017)

Posted By: SERTiL
Judas Priest - Turbo 30 (Remastered 30th Anniversary Deluxe Edition) (1986/2017)

Judas Priest - Turbo 30 (Remastered 30th Anniversary Deluxe Edition)
Hard Rock, Heavy Metal | FLAC (image)+cue, scans | 142:53 min | 1.08 GB
Label: Sony Music UK | Tracks: 29 | Rls.date: 1986/2017

Judas Priest‘s 10th studio album is getting the deluxe reissue treatment for its 30th anniversary.
Turbo, originally released in April of 1986, is scheduled to return to stores on Feb. 3 with new artwork, remastered sound, and a heaping helping of bonus material that includes two discs of previously unreleased live recordings from that year’s Fuel for Life tour.
“The ’80s is considered to have been the best decade for heavy metal – Judas Priest roared through it and at the halfway point went into unchartered territory with Turbo,” reads the press release announcing the reissue. “Always believing that metal should have no boundaries, Priest challenged themselves, taking on board new technical inventions to create fresh ideas and push their sound forward. The combined songs show another side of Priest’s range of creativity that captures a theme and energy infused with the over the top sensibilities of that era.”
Of the live tracks, captured during Judas Priest’s stop at the Kemper Arena in Kansas City, the press release adds, “The Fuel for Life tour certainly encapsulated the decadence of the times. Turbo remastered and accompanied by a pedal-to-the metal live recording from Kansas reveals Priest on high octane – raising fists and devil horns to the next level.”

Judas Priest - Turbo 30 (Remastered 30th Anniversary Deluxe Edition) (1986/2017)


TRACKLIST CD1: Turbo 30
01. Turbo Lover (Remastered) (5:34)
02. Locked In (Remastered) (4:20)
03. Private Property (Remastered) (4:30)
04. Parental Guidance (Remastered) (3:27)
05. Rock You All Around The World (Remastered) (3:37)
06. Out In The Cold (Remastered) (6:28)
07. Wild Nights, Hot & Crazy Days (Remastered) (4:40)
08. Hot For Love (Remastered) (4:12)
09. Reckless (Remastered) (4:22)

Exact Audio Copy V1.3 from 2. September 2016

EAC extraction logfile from 7. February 2017, 18:41

Judas Priest / Turbo (Remastered)

Used drive : PIONEER DVD-RW DVR-221 Adapter: 3 ID: 0

Read mode : Secure
Utilize accurate stream : Yes
Defeat audio cache : Yes
Make use of C2 pointers : No

Read offset correction : 6
Overread into Lead-In and Lead-Out : No
Fill up missing offset samples with silence : Yes
Delete leading and trailing silent blocks : No
Null samples used in CRC calculations : Yes
Used interface : Installed external ASPI interface

Used output format : User Defined Encoder
Selected bitrate : 1024 kBit/s
Quality : High
Add ID3 tag : No
Command line compressor : C:\Program Files\Exact Audio Copy\Flac\flac.exe
Additional command line options : -V -8 -T "Date=%year%" -T "Genre=%genre%" -T "COMMENT=Ripped by Hellwings71" -8 -V %source%


TOC of the extracted CD

Track | Start | Length | Start sector | End sector
––––––––––––––––––––––––––––-
1 | 0:00.00 | 5:34.00 | 0 | 25049
2 | 5:34.00 | 4:19.60 | 25050 | 44534
3 | 9:53.60 | 4:30.25 | 44535 | 64809
4 | 14:24.10 | 3:26.65 | 64810 | 80324
5 | 17:51.00 | 3:37.12 | 80325 | 96611
6 | 21:28.12 | 6:27.60 | 96612 | 125696
7 | 27:55.72 | 4:40.13 | 125697 | 146709
8 | 32:36.10 | 4:11.67 | 146710 | 165601
9 | 36:48.02 | 4:21.53 | 165602 | 185229


Range status and errors

Selected range

Filename E:\Program files\CD Images\Hellwings71\JP-30(30Th AR3CD)\CD1\Judas Priest - Turbo (Remastered).wav

Peak level 100.0 %
Extraction speed 4.0 X
Range quality 99.9 %
Test CRC 4379C237
Copy CRC 4379C237
Copy OK

No errors occurred


AccurateRip summary

Track 1 not present in database
Track 2 not present in database
Track 3 not present in database
Track 4 not present in database
Track 5 not present in database
Track 6 not present in database
Track 7 not present in database
Track 8 not present in database
Track 9 not present in database

None of the tracks are present in the AccurateRip database

End of status report

–– CUETools DB Plugin V2.1.6

[CTDB TOCID: bmX0FHV._GtIFd1Lw4airAfjHBM-] found
Submit result: already submitted
Track | CTDB Status
1 | (16/16) Accurately ripped
2 | (16/16) Accurately ripped
3 | (16/16) Accurately ripped
4 | (16/16) Accurately ripped
5 | (16/16) Accurately ripped
6 | (16/16) Accurately ripped
7 | (16/16) Accurately ripped
8 | (16/16) Accurately ripped
9 | (16/16) Accurately ripped


==== Log checksum 0DAE8AE6560AC3D71B2A72E498DEC0DC54040F438EB9A9C612BB9FBC34B5F2AD ====


Judas Priest - Turbo 30 (Remastered 30th Anniversary Deluxe Edition) (1986/2017)


TRACKLIST CD2: Live Tuor Kansas Sity
01. Out In The Cold (Recorded at Kemper Arena in Kansas City) (6:35)
02. Locked In (Recorded at Kemper Arena in Kansas City) (4:22)
03. Heading Out To The Highway (Recorded at Kemper Arena in Kansas City) (4:53)
04. Metal Gods (Recorded at Kemper Arena in Kansas City) (4:04)
05. Breaking The Law (Recorded at Kemper Arena in Kansas City) (2:44)
06. Love Bites (Recorded at Kemper Arena in Kansas City) (5:20)
07. Some Heads Are Gonna Roll (Recorded at Kemper Arena in Kansas City) (4:26)
08. The Sentinel (Recorded at Kemper Arena in Kansas City) (5:03)
09. Private Property (Recorded at Kemper Arena in Kansas City) (5:12)
10. Desert Plains (Recorded at Kemper Arena in Kansas City) (4:55)
11. Rock You All Around The World (Recorded at Kemper Arena in Kansas City) (5:02)

Exact Audio Copy V1.3 from 2. September 2016

EAC extraction logfile from 7. February 2017, 18:16

Judas Priest / CD 2 - Recorded At Kemper Arena In Kansas City

Used drive : PIONEER DVD-RW DVR-221 Adapter: 3 ID: 0

Read mode : Secure
Utilize accurate stream : Yes
Defeat audio cache : Yes
Make use of C2 pointers : No

Read offset correction : 6
Overread into Lead-In and Lead-Out : No
Fill up missing offset samples with silence : Yes
Delete leading and trailing silent blocks : No
Null samples used in CRC calculations : Yes
Used interface : Installed external ASPI interface

Used output format : User Defined Encoder
Selected bitrate : 1024 kBit/s
Quality : High
Add ID3 tag : No
Command line compressor : C:\Program Files\Exact Audio Copy\Flac\flac.exe
Additional command line options : -V -8 -T "Date=%year%" -T "Genre=%genre%" -T "COMMENT=Ripped by Hellwings71" -8 -V %source%


TOC of the extracted CD

Track | Start | Length | Start sector | End sector
––––––––––––––––––––––––––––-
1 | 0:00.00 | 6:35.33 | 0 | 29657
2 | 6:35.33 | 4:21.65 | 29658 | 49297
3 | 10:57.23 | 4:53.31 | 49298 | 71303
4 | 15:50.54 | 4:03.52 | 71304 | 89580
5 | 19:54.31 | 2:43.66 | 89581 | 101871
6 | 22:38.22 | 5:19.42 | 101872 | 125838
7 | 27:57.64 | 4:25.38 | 125839 | 145751
8 | 32:23.27 | 5:02.74 | 145752 | 168475
9 | 37:26.26 | 5:11.72 | 168476 | 191872
10 | 42:38.23 | 4:55.00 | 191873 | 213997
11 | 47:33.23 | 5:02.06 | 213998 | 236653


Range status and errors

Selected range

Filename E:\Program files\CD Images\Hellwings71\JP-30(30Th AR3CD)\CD2\Judas Priest - CD 2 - Recorded At Kemper Arena In Kansas City.wav

Peak level 100.0 %
Extraction speed 4.4 X
Range quality 100.0 %
Test CRC E9B8133A
Copy CRC E9B8133A
Copy OK

No errors occurred


AccurateRip summary

Track 1 not present in database
Track 2 not present in database
Track 3 not present in database
Track 4 not present in database
Track 5 not present in database
Track 6 not present in database
Track 7 not present in database
Track 8 not present in database
Track 9 not present in database
Track 10 not present in database
Track 11 not present in database

None of the tracks are present in the AccurateRip database

End of status report

–– CUETools DB Plugin V2.1.6

[CTDB TOCID: BYZnAwovqPHcv6CJCX.qZnEXDR4-] found
Submit result: already submitted
Track | CTDB Status
1 | (18/18) Accurately ripped
2 | (18/18) Accurately ripped
3 | (18/18) Accurately ripped
4 | (18/18) Accurately ripped
5 | (18/18) Accurately ripped
6 | (18/18) Accurately ripped
7 | (18/18) Accurately ripped
8 | (18/18) Accurately ripped
9 | (18/18) Accurately ripped
10 | (18/18) Accurately ripped
11 | (18/18) Accurately ripped


==== Log checksum 896033F7B0F1C61ADA6839ECAB7B138D9522ABBD25F59C48CE3393D20E1D13C1 ====


Judas Priest - Turbo 30 (Remastered 30th Anniversary Deluxe Edition) (1986/2017)


TRACKLIST CD3: Live Tuor Kansas Sity
01. The Hellion (Recorded at Kemper Arena in Kansas City) (0:41)
02. Electric Eye (Recorded at Kemper Arena in Kansas City) (3:38)
03. Turbo Lover (Recorded at Kemper Arena in Kansas City) (6:03)
04. Freewheel Burning (Recorded at Kemper Arena in Kansas City) (5:03)
05. Victim Of Changes (Recorded at Kemper Arena in Kansas City) (8:55)
06. The Green Manalishi (With The Two-Pronged Crown) (Recorded at Kemper Arena in… (5:19)
07. Living After Midnight (Recorded at Kemper Arena in Kansas City) (4:35)
08. You've Got Another Thing Coming (Recorded at Kemper Arena in Kansas City) (9:02)
09. Hell Bent For Leather (Recorded at Kemper Arena in Kansas City) (5:54)

Exact Audio Copy V1.3 from 2. September 2016

EAC extraction logfile from 7. February 2017, 17:47

Judas Priest / CD 3 - Recorded At Kemper Arena in Kansas City

Used drive : PIONEER DVD-RW DVR-221 Adapter: 3 ID: 0

Read mode : Secure
Utilize accurate stream : Yes
Defeat audio cache : Yes
Make use of C2 pointers : No

Read offset correction : 6
Overread into Lead-In and Lead-Out : No
Fill up missing offset samples with silence : Yes
Delete leading and trailing silent blocks : No
Null samples used in CRC calculations : Yes
Used interface : Installed external ASPI interface

Used output format : User Defined Encoder
Selected bitrate : 1024 kBit/s
Quality : High
Add ID3 tag : No
Command line compressor : C:\Program Files\Exact Audio Copy\Flac\flac.exe
Additional command line options : -V -8 -T "Date=%year%" -T "Genre=%genre%" -T "COMMENT=Ripped by Hellwings71" -8 -V %source%


TOC of the extracted CD

Track | Start | Length | Start sector | End sector
––––––––––––––––––––––––––––-
1 | 0:00.00 | 0:40.43 | 0 | 3042
2 | 0:40.43 | 3:37.55 | 3043 | 19372
3 | 4:18.23 | 6:03.07 | 19373 | 46604
4 | 10:21.30 | 5:03.00 | 46605 | 69329
5 | 15:24.30 | 8:55.00 | 69330 | 109454
6 | 24:19.30 | 5:19.02 | 109455 | 133381
7 | 29:38.32 | 4:35.28 | 133382 | 154034
8 | 34:13.60 | 9:01.60 | 154035 | 194669
9 | 43:15.45 | 5:53.45 | 194670 | 221189


Range status and errors

Selected range

Filename E:\Program files\CD Images\Hellwings71\JP-30(30Th AR3CD)\CD3\Judas Priest - CD 3 - Recorded At Kemper Arena in Kansas City.wav

Peak level 99.8 %
Extraction speed 4.3 X
Range quality 100.0 %
Test CRC BEEB8FF5
Copy CRC BEEB8FF5
Copy OK

No errors occurred


AccurateRip summary

Track 1 not present in database
Track 2 not present in database
Track 3 not present in database
Track 4 not present in database
Track 5 not present in database
Track 6 not present in database
Track 7 not present in database
Track 8 not present in database
Track 9 not present in database

None of the tracks are present in the AccurateRip database

End of status report

–– CUETools DB Plugin V2.1.6

[CTDB TOCID: VKCdz983QjbhL1BhaWfdPwrqSaI-] found
Submit result: VKCdz983QjbhL1BhaWfdPwrqSaI- has been confirmed
Track | CTDB Status
1 | (16/16) Accurately ripped
2 | (16/16) Accurately ripped
3 | (16/16) Accurately ripped
4 | (16/16) Accurately ripped
5 | (16/16) Accurately ripped
6 | (16/16) Accurately ripped
7 | (16/16) Accurately ripped
8 | (16/16) Accurately ripped
9 | (15/16) Accurately ripped


==== Log checksum 439D6BDC584576934595EEC25392795B6BB3C980975CECFE94A2DEE8371529B4 ====


Judas Priest - Turbo 30 (Remastered 30th Anniversary Deluxe Edition) (1986/2017)


Thanks to the Original customer.