Subcategories

June Christy - Gone For The Day (1957) + Fair And Warmer! (1957) 2 LP in 1 CD, 1998

Posted By: Designol
June Christy - Gone For The Day (1957) + Fair And Warmer! (1957) 2 LP in 1 CD, 1998

June Christy - Gone For The Day (1957) + Fair And Warmer! (1957) 2 LP in 1 CD, 1998
EAC | FLAC | Tracks (Cue&Log) ~ 195 Mb | Mp3 (CBR320) ~ 162 Mb | Scans included
Vocal Jazz, Cool, Vocal Pop | Label: Capitol Jazz | # CDP 7243 4 95448 2 6 | 01:09:19

This compilation has all of the music formerly on singer June Christy's two 1957 Capitol LPs, Fair and Warmer! and Gone for the Day, both of which have Pete Rugolo arrangements. The former set (which is actually programmed second) finds Christy joined by a 12-piece group of mostly West Coast all-stars. The backup players include trumpeter Don Fagerquist, trombonist Frank Rosolino, altoist Bud Shank, and Bob Cooper on tenor, but they are mostly restricted to short statements. Christy is in excellent form on such numbers as a definitive (but very brief) "I Want to Be Happy," "When Sunny Gets Blue," and "It's Always You." Three different groups are used on the Gone for the Day set, two of which have string sections, while the other uses five trombones.

Review by Scott Yanow, Allmusic.com

June Christy's bid to shake some of the frost off her image resulted in these two late-'50s albums. Although the ostensible theme of Gone for the Day is a visit to the outdoors with a lover, the occasional jarring note drops–witness the knowing orchestral dissonance on "It's So Peaceful in the Country" and the nod to Christy's bittersweet signature song, "Something Cool," on "When the World Was Young." Only a glib, brassy "Give Me the Simple Life" seems out of place. Fair and Warmer starts on a similar note with "I Want to Be Happy" but soon settles down. Christy's melody-bending performance renders the Jimmy Van Heusen/Johnny Burke "Imagination"'s suggestions of sex as melancholy as Gone's high points, while she takes charge of the situation on Irving Berlin's "Best Thing for You." This disc finds Christy striking close to greatness on a pair of complementary records from an era when the LP was finding its way as a conceptual tool.

Review by Rickey Wright

June Christy - Gone For The Day (1957) + Fair And Warmer! (1957) 2 LP in 1 CD, 1998



Tracklist:

Gone For The Day (1957)
01. It's So Peaceful In The Country (4:22)
02. When The Sun Comes Out (3:11)
03. It's A Most Unusual Day (2:24)
04. Interlude (4:45)
05. Love Turns Winter To Spring (3:33)
06. When You Awake (2:30)
07. Lazy Afternoon (3:19)
08. When The World Was Young (4:38)
09. Gone For The Day (2:03)
10. Lost In A Summer Night (4:13)
11. Give Me The Simple Life (2:18)
12. (Love's Got Me In A) Lazy Mood (2:31)

Fair And Warmer! (1957)
13. I Want To Be Happy (1:24)
14. Imagination (3:17)
15. I've Never Been In Love Before (1:53)
16. Irresistible You (2:41)
17. No More (3:03)
18. Better Luck Next Time (1:45)
19. Let There Be Love (1:56)
20. When Sunny Gets Blue (2:59)
21. The Best Thing For You (2:17)
22. Beware My Heart (3:14)
23. I Know Why (And So Do You) (2:13)
24. It's Always You (2:52)


Exact Audio Copy V1.1 from 23. June 2015

EAC extraction logfile from 24. October 2016, 10:41

June Christy / Gone For The Day + Fair And Warmer!

Used drive : HL-DT-STDVD+-RW GH30N Adapter: 1 ID: 1

Read mode : Secure
Utilize accurate stream : Yes
Defeat audio cache : Yes
Make use of C2 pointers : No

Read offset correction : 102
Overread into Lead-In and Lead-Out : Yes
Fill up missing offset samples with silence : Yes
Delete leading and trailing silent blocks : No
Null samples used in CRC calculations : Yes
Used interface : Native Win32 interface for Win NT & 2000
Gap handling : Appended to previous track

Used output format : User Defined Encoder
Selected bitrate : 768 kBit/s
Quality : High
Add ID3 tag : No
Command line compressor : C:\Program Files (x86)\Exact Audio Copy\FLAC\FLAC.EXE
Additional command line options : -8 -V -T "ARTIST=%artist%" -T "TITLE=%title%" -T "ALBUM=%albumtitle%" -T "DATE=%year%" -T "TRACKNUMBER=%tracknr%" -T "GENRE=%genre%" -T "PERFORMER=%albuminterpret%" -T "COMPOSER=%composer%" %haslyrics%–tag-from-file=LYRICS="%lyricsfile%"%haslyrics% -T "ALBUMARTIST=%albumartist%" -T "DISCNUMBER=%cdnumber%" -T "TOTALDISCS=%totalcds%" -T "TOTALTRACKS=%numtracks%" -T "COMMENT=%comment%" %source% -o %dest%


TOC of the extracted CD

Track | Start | Length | Start sector | End sector
––––––––––––––––––––––––––––-
1 | 0:00.00 | 4:22.17 | 0 | 19666
2 | 4:22.17 | 3:11.10 | 19667 | 34001
3 | 7:33.27 | 2:23.60 | 34002 | 44786
4 | 9:57.12 | 4:44.40 | 44787 | 66126
5 | 14:41.52 | 3:32.48 | 66127 | 82074
6 | 18:14.25 | 2:29.40 | 82075 | 93289
7 | 20:43.65 | 3:18.50 | 93290 | 108189
8 | 24:02.40 | 4:38.00 | 108190 | 129039
9 | 28:40.40 | 2:03.20 | 129040 | 138284
10 | 30:43.60 | 4:13.00 | 138285 | 157259
11 | 34:56.60 | 2:17.67 | 157260 | 167601
12 | 37:14.52 | 2:30.43 | 167602 | 178894
13 | 39:45.20 | 1:23.40 | 178895 | 185159
14 | 41:08.60 | 3:17.00 | 185160 | 199934
15 | 44:25.60 | 1:52.72 | 199935 | 208406
16 | 46:18.57 | 2:40.43 | 208407 | 220449
17 | 48:59.25 | 3:02.55 | 220450 | 234154
18 | 52:02.05 | 1:44.72 | 234155 | 242026
19 | 53:47.02 | 1:55.63 | 242027 | 250714
20 | 55:42.65 | 2:59.20 | 250715 | 264159
21 | 58:42.10 | 2:17.05 | 264160 | 274439
22 | 60:59.15 | 3:14.17 | 274440 | 289006
23 | 64:13.32 | 2:13.23 | 289007 | 299004
24 | 66:26.55 | 2:52.25 | 299005 | 311929


Track 1

Filename C:\EACRips\01 - It's So Peaceful In The Country.wav

Pre-gap length 0:00:02.00

Peak level 67.4 %
Extraction speed 1.7 X
Track quality 100.0 %
Test CRC D64A5ED8
Copy CRC D64A5ED8
Accurately ripped (confidence 6) [11ADB576] (AR v2)
Copy OK

Track 2

Filename C:\EACRips\02 - When The Sun Comes Out.wav

Pre-gap length 0:00:02.60

Peak level 79.7 %
Extraction speed 1.8 X
Track quality 100.0 %
Test CRC DEB27C32
Copy CRC DEB27C32
Accurately ripped (confidence 6) [F89F04CD] (AR v2)
Copy OK

Track 3

Filename C:\EACRips\03 - It's A Most Unusual Day.wav

Pre-gap length 0:00:02.29

Peak level 75.6 %
Extraction speed 1.8 X
Track quality 100.0 %
Test CRC 68386CC1
Copy CRC 68386CC1
Accurately ripped (confidence 6) [3C7C932D] (AR v2)
Copy OK

Track 4

Filename C:\EACRips\04 - Interlude.wav

Pre-gap length 0:00:01.89

Peak level 69.7 %
Extraction speed 1.9 X
Track quality 99.9 %
Test CRC 42D6125B
Copy CRC 42D6125B
Accurately ripped (confidence 6) [513AF3E5] (AR v2)
Copy OK

Track 5

Filename C:\EACRips\05 - Love Turns Winter To Spring.wav

Pre-gap length 0:00:02.53

Peak level 71.1 %
Extraction speed 2.2 X
Track quality 100.0 %
Test CRC 90C1213E
Copy CRC 90C1213E
Accurately ripped (confidence 6) [92DF2B09] (AR v2)
Copy OK

Track 6

Filename C:\EACRips\06 - When You Awake.wav

Pre-gap length 0:00:02.53

Peak level 52.2 %
Extraction speed 2.1 X
Track quality 100.0 %
Test CRC 4F1C517A
Copy CRC 4F1C517A
Accurately ripped (confidence 6) [8A353104] (AR v2)
Copy OK

Track 7

Filename C:\EACRips\07 - Lazy Afternoon.wav

Pre-gap length 0:00:02.64

Peak level 68.3 %
Extraction speed 2.3 X
Track quality 100.0 %
Test CRC 0D3C7BB0
Copy CRC 0D3C7BB0
Accurately ripped (confidence 6) [3E21BC35] (AR v2)
Copy OK

Track 8

Filename C:\EACRips\08 - When The World Was Young.wav

Pre-gap length 0:00:03.06

Peak level 69.2 %
Extraction speed 2.6 X
Track quality 100.0 %
Test CRC 8C4D2ADC
Copy CRC 8C4D2ADC
Accurately ripped (confidence 6) [07E3EC84] (AR v2)
Copy OK

Track 9

Filename C:\EACRips\09 - Gone For The Day.wav

Pre-gap length 0:00:02.37

Peak level 75.2 %
Extraction speed 2.3 X
Track quality 100.0 %
Test CRC 5BB0EFDF
Copy CRC 5BB0EFDF
Accurately ripped (confidence 6) [92591B9C] (AR v2)
Copy OK

Track 10

Filename C:\EACRips\10 - Lost In A Summer Night.wav

Pre-gap length 0:00:02.24

Peak level 85.4 %
Extraction speed 2.7 X
Track quality 100.0 %
Test CRC 9C43A18E
Copy CRC 9C43A18E
Accurately ripped (confidence 6) [F7FAD550] (AR v2)
Copy OK

Track 11

Filename C:\EACRips\11 - Give Me The Simple Life.wav

Pre-gap length 0:00:02.40

Peak level 75.6 %
Extraction speed 2.4 X
Track quality 100.0 %
Test CRC 295B6A95
Copy CRC 295B6A95
Accurately ripped (confidence 6) [ABE25F81] (AR v2)
Copy OK

Track 12

Filename C:\EACRips\12 - (Love's Got Me In A) Lazy Mood.wav

Pre-gap length 0:00:01.93

Peak level 83.2 %
Extraction speed 2.4 X
Track quality 100.0 %
Test CRC A2F31742
Copy CRC A2F31742
Accurately ripped (confidence 6) [EA9D1EE9] (AR v2)
Copy OK

Track 13

Filename C:\EACRips\13 - I Want To Be Happy.wav

Pre-gap length 0:00:01.84

Peak level 73.5 %
Extraction speed 2.2 X
Track quality 100.0 %
Test CRC 368722F9
Copy CRC 368722F9
Accurately ripped (confidence 6) [3B22B46C] (AR v2)
Copy OK

Track 14

Filename C:\EACRips\14 - Imagination.wav

Pre-gap length 0:00:02.44

Peak level 55.2 %
Extraction speed 2.9 X
Track quality 100.0 %
Test CRC FDD45ECE
Copy CRC FDD45ECE
Accurately ripped (confidence 6) [7377D75A] (AR v2)
Copy OK

Track 15

Filename C:\EACRips\15 - I've Never Been In Love Before.wav

Pre-gap length 0:00:02.24

Peak level 79.1 %
Extraction speed 2.6 X
Track quality 100.0 %
Test CRC ED0C8BE7
Copy CRC ED0C8BE7
Accurately ripped (confidence 6) [0B4709C0] (AR v2)
Copy OK

Track 16

Filename C:\EACRips\16 - Irresistible You.wav

Pre-gap length 0:00:01.96

Peak level 63.4 %
Extraction speed 2.9 X
Track quality 100.0 %
Test CRC 91F971B4
Copy CRC 91F971B4
Accurately ripped (confidence 6) [4C245037] (AR v2)
Copy OK

Track 17

Filename C:\EACRips\17 - No More.wav

Pre-gap length 0:00:02.46

Peak level 66.6 %
Extraction speed 3.0 X
Track quality 100.0 %
Test CRC EAF701D3
Copy CRC EAF701D3
Accurately ripped (confidence 5) [F3778524] (AR v2)
Copy OK

Track 18

Filename C:\EACRips\18 - Better Luck Next Time.wav

Pre-gap length 0:00:02.33

Peak level 77.1 %
Extraction speed 2.7 X
Track quality 100.0 %
Test CRC F53512B4
Copy CRC F53512B4
Accurately ripped (confidence 6) [5BBF62D3] (AR v2)
Copy OK

Track 19

Filename C:\EACRips\19 - Let There Be Love.wav

Pre-gap length 0:00:01.89

Peak level 68.8 %
Extraction speed 2.2 X
Track quality 99.9 %
Test CRC BF8BBB90
Copy CRC BF8BBB90
Accurately ripped (confidence 6) [411E27D1] (AR v2)
Copy OK

Track 20

Filename C:\EACRips\20 - When Sunny Gets Blue.wav

Pre-gap length 0:00:01.77

Peak level 67.1 %
Extraction speed 2.7 X
Track quality 99.9 %
Test CRC 957F80A4
Copy CRC 957F80A4
Accurately ripped (confidence 6) [0184C67A] (AR v2)
Copy OK

Track 21

Filename C:\EACRips\21 - The Best Thing For You.wav

Pre-gap length 0:00:02.53

Peak level 72.1 %
Extraction speed 3.0 X
Track quality 100.0 %
Test CRC 6552E4F3
Copy CRC 6552E4F3
Accurately ripped (confidence 5) [F71407BA] (AR v2)
Copy OK

Track 22

Filename C:\EACRips\22 - Beware My Heart.wav

Pre-gap length 0:00:02.73

Peak level 60.6 %
Extraction speed 2.8 X
Track quality 99.9 %
Test CRC EB4BBDA5
Copy CRC EB4BBDA5
Accurately ripped (confidence 6) [5B69FF8E] (AR v2)
Copy OK

Track 23

Filename C:\EACRips\23 - I Know Why (And So Do You).wav

Pre-gap length 0:00:02.20

Peak level 76.6 %
Extraction speed 3.1 X
Track quality 100.0 %
Test CRC 63FE8FBC
Copy CRC 63FE8FBC
Accurately ripped (confidence 6) [66CD91B4] (AR v2)
Copy OK

Track 24

Filename C:\EACRips\24 - It's Always You.wav

Pre-gap length 0:00:02.33

Peak level 58.2 %
Extraction speed 3.6 X
Track quality 99.9 %
Test CRC 63AF3684
Copy CRC 63AF3684
Accurately ripped (confidence 6) [54ABDCF5] (AR v2)
Copy OK


All tracks accurately ripped

No errors occurred

End of status report

–– CUETools DB Plugin V2.1.6

[CTDB TOCID: geLXPPvrHhvSW2zTI4IsslMZMuI-] found
Submit result: geLXPPvrHhvSW2zTI4IsslMZMuI- has been confirmed
Track | CTDB Status
1 | (9/9) Accurately ripped
2 | (9/9) Accurately ripped
3 | (9/9) Accurately ripped
4 | (9/9) Accurately ripped
5 | (9/9) Accurately ripped
6 | (9/9) Accurately ripped
7 | (9/9) Accurately ripped
8 | (9/9) Accurately ripped
9 | (9/9) Accurately ripped
10 | (9/9) Accurately ripped
11 | (9/9) Accurately ripped
12 | (9/9) Accurately ripped
13 | (9/9) Accurately ripped
14 | (9/9) Accurately ripped
15 | (9/9) Accurately ripped
16 | (9/9) Accurately ripped
17 | (8/9) Accurately ripped, or (1/9) differs in 122 samples @00:03:32-00:03:33
18 | (9/9) Accurately ripped
19 | (9/9) Accurately ripped
20 | (9/9) Accurately ripped
21 | (7/9) Accurately ripped, or (1/9) differs in 108 samples @02:10:65-02:10:66, or (1/9) differs in 56 samples @01:03:42,01:03:61,01:04:06-01:04:07,01:04:66-01:04:67,01:05:12
22 | (9/9) Accurately ripped
23 | (9/9) Accurately ripped
24 | (8/9) Accurately ripped


==== Log checksum 71730ACEB1988C70F380E06B57A122CD92D3EAFC17AD039E699CE1C92456B4F3 ====

foobar2000 1.2 / Dynamic Range Meter 1.1.1
log date: 2016-11-05 23:57:39

––––––––––––––––––––––––––––––––––––––––
Analyzed: June Christy / Gone For The Day / Fair And Warmer
––––––––––––––––––––––––––––––––––––––––

DR Peak RMS Duration Track
––––––––––––––––––––––––––––––––––––––––
DR13 -3.43 dB -19.38 dB 4:22 01-It's So Peaceful In The Country
DR13 -1.97 dB -18.51 dB 3:11 02-When The Sun Comes Out
DR13 -2.43 dB -16.85 dB 2:24 03-It's A Most Unusual Day
DR13 -3.13 dB -19.89 dB 4:45 04-Interlude
DR14 -2.96 dB -19.51 dB 3:33 05-Love Turns Winter To Spring
DR11 -5.64 dB -19.72 dB 2:30 06-When You Awake
DR13 -3.31 dB -20.39 dB 3:19 07-Lazy Afternoon
DR12 -3.19 dB -20.38 dB 4:38 08-When The World Was Young
DR11 -2.47 dB -16.49 dB 2:03 09-Gone For The Day
DR13 -1.37 dB -17.05 dB 4:13 10-Lost In A Summer Night
DR12 -2.43 dB -16.02 dB 2:18 11-Give Me The Simple Life
DR13 -1.59 dB -17.63 dB 2:31 12-(Love's Got Me In A) Lazy Mood
DR12 -2.67 dB -16.91 dB 1:24 13-I Want To Be Happy
DR10 -5.15 dB -18.87 dB 3:17 14-Imagination
DR13 -2.03 dB -16.91 dB 1:53 15-I've Never Been In Love Before
DR11 -3.95 dB -17.97 dB 2:41 16-Irresistible You
DR11 -3.53 dB -18.31 dB 3:03 17-No More
DR11 -2.25 dB -15.72 dB 1:45 18-Better Luck Next Time
DR12 -3.24 dB -18.76 dB 1:56 19-Let There Be Love
DR12 -3.46 dB -17.78 dB 2:59 20-When Sunny Gets Blue
DR12 -2.83 dB -17.75 dB 2:17 21-The Best Thing For You
DR11 -4.35 dB -19.28 dB 3:14 22-Beware My Heart
DR13 -2.31 dB -17.24 dB 2:13 23-I Know Why (And So Do You)
DR11 -4.69 dB -18.41 dB 2:52 24-It's Always You
––––––––––––––––––––––––––––––––––––––––

Number of tracks: 24
Official DR value: DR12

Samplerate: 44100 Hz
Channels: 2
Bits per sample: 16
Bitrate: 369 kbps
Codec: FLAC
================================================================================

June Christy - Gone For The Day (1957) + Fair And Warmer! (1957) 2 LP in 1 CD, 1998