Tags
Language
Tags

Junior's Eyes - Battersea Power Station (1969)

Posted By: v3122
Junior's Eyes - Battersea Power Station (1969)

Junior's Eyes - Battersea Power Station (1969)
EAC | Flac(Image) + Cue + Log & MP3 CBR 320Kbps
2018 | World Wide Records, SPM-WWR-CD-0025 | RU | ~ 231 or 92 Mb | Scans(jpg) -> 21 Mb
Psychedelic Rock, Progressive Rock | Unofficial Release

Mick Wayne undoubtedly tried hard to be significant and progressive with his songs on Junior's Eyes' sole album. There were meter changes, skilled psychedelic hard rock guitar riffs, and moods both whimsical and cynical throughout. Although the predominant vibe was bluesy psych-prog, there were also quieter, more acoustic interludes. It doesn't add up to much without memorable hooks or vision, though, and the record fails to stick as a noteworthy effort, even by the standards of obscure late-'60s British psychedelia. If you disagree with that assessment, or in any case are still curious enough to track down this collectable release, the remastered 2015 two-CD Deluxe Edition on Esoteric couldn't possibly be a more thoughtful package. In addition to the songs from the original LP, it contains both sides of their three non-LP 1968-1969 singles, four demos of songs from Battersea Power Station, both sides of the 1967 psych-pop single by the Tickle, Mick Wayne's previous band, and two previously unreleased live tracks from an October 1968 BBC session, along with a new essay and restored original artwork. The Tickle single "Subway (Smokey Pokey World)" is the real gem, though a few of the other 45 tracks are rather poppier in approach than most of the album.

by Richie Unterberger, allmusic
Junior's Eyes - Battersea Power Station (1969):

Junior's Eyes - Battersea Power Station (1969)

Tracklist:

01. Battersea Power Station 21:32
-1a Total War
-1b Circus Days
-1c Imagination
-1d My Ship
-1e Miss Lizzy
-1f So Embarrassed
-1g Freak In
02. Playtime 3:50
03. I’m Drowning 1:25
04. White Light 6:34
05. By The Tree 4:58

Musicians:

Mick Wayne - vocals, guitar
Steve Chapman - drums
John Lodge - bass
Graham Kelly - vocals
Rick Wakeman - keyboards
Tim Renwick - guitar
John Cambridge - drums


Exact Audio Copy V1.3 from 2. September 2016

Отчёт EAC об извлечении, выполненном 10. апреля 2018, 17:41

Junior's Eyes / Battersea Power Station

Дисковод: ASUS DRW-24B3ST Adapter: 1 ID: 0

Режим чтения : Достоверность
Использование точного потока : Да
Отключение кэша аудио : Да
Использование указателей C2 : Нет

Коррекция смещения при чтении : 6
Способность читать области Lead-in и Lead-out : Нет
Заполнение пропущенных сэмплов тишиной : Да
Удаление блоков с тишиной в начале и конце : Нет
При вычислениях CRC использовались нулевые сэмплы : Да
Интерфейс : Встроенный Win32-интерфейс для Win NT/2000

Выходной формат : Пользовательский кодировщик
Выбранный битрейт : 1024 kBit/s
Качество : Высокий
Добавление ID3-тега : Нет
Утилита сжатия : C:\Program Files (x86)\Exact Audio Copy\Flac\flac.exe
Дополнительные параметры : -V -8 -T "Date=%year%" -T "Genre=%genre%" %source%


TOC извлечённого CD

Трек | Старт | Длительность | Начальный сектор | Конечный сектор
––––––––––––––––––––––––––––––––––-
1 | 0:00.00 | 21:32.22 | 0 | 96921
2 | 21:32.22 | 3:49.48 | 96922 | 114144
3 | 25:21.70 | 1:25.00 | 114145 | 120519
4 | 26:46.70 | 6:34.00 | 120520 | 150069
5 | 33:20.70 | 4:57.45 | 150070 | 172389


Характеристики диапазона извлечения и сообщения об ошибках

Выбранный диапазон

Имя файла E:\Torrents-seed\Junior's Eyes - 1969 - Battersea Power Station\Junior's Eyes - Battersea Power Station.wav

Пиковый уровень 94.7 %
Скорость извлечения 3.1 X
Качество диапазона 100.0 %
CRC теста 074CF94E
CRC копии 074CF94E
Копирование… OK

Ошибок не произошло


AccurateRip: сводка

Трек 1 точность не определена (достоверность 1) [75317D66], AccurateRip вернул [E5E022A6] (AR v2)
Трек 2 точность не определена (достоверность 1) [2C2764DA], AccurateRip вернул [6A87D0DB] (AR v2)
Трек 3 точность не определена (достоверность 1) [DFC928DE], AccurateRip вернул [4562E347] (AR v2)
Трек 4 точность не определена (достоверность 1) [96B9B7A8], AccurateRip вернул [05DF8809] (AR v2)
Трек 5 точность не определена (достоверность 1) [3816B1E3], AccurateRip вернул [39D544CE] (AR v2)

Ни один трек не прошёл проверки на точность
В вашей базе может быть иной вариант штамповки диска

Конец отчёта

==== Контрольная сумма отчёта 6A05DE8AB1F571BC69C0B86F306CF4D5891731EC79D15C3455E14BC7CE4EC614 ====


[CUETools log; Date: 10.04.2018 19:40:25; Version: 2.1.5]
[AccurateRip ID: 0009fadf-002ac56a-3008fa05] found.
Track [ CRC | V2 ] Status
01 [992b0298|75317d66] (0+0/4) No match
02 [35faca37|2c2764da] (0+0/4) No match
03 [9fb7f0d9|dfc928de] (0+0/4) No match
04 [52a789b9|96b9b7a8] (0+0/4) No match
05 [241d948e|3816b1e3] (0+0/4) No match
Offsetted by -30:
01 [e5e022a6] (1/4) Accurately ripped
02 [6a87d0db] (1/4) Accurately ripped
03 [4562e347] (1/4) Accurately ripped
04 [05df8809] (1/4) Accurately ripped
05 [39d544ce] (1/4) Accurately ripped
Offsetted by 6:
01 [236d2f62] (1/4) Accurately ripped
02 [c511c8e3] (1/4) Accurately ripped
03 [e4fc26c3] (1/4) Accurately ripped
04 [c86923a9] (1/4) Accurately ripped
05 [26b81d40] (1/4) Accurately ripped
Offsetted by 2087:
01 [7414ddb9] (1/4) Accurately ripped
02 [a163d195] (1/4) Accurately ripped
03 [6790874a] (1/4) Accurately ripped
04 [fcdf3251] (1/4) Accurately ripped
05 [61bb2b6f] (1/4) Accurately ripped

Track Peak [ CRC32 ] [W/O NULL] [ LOG ]
– 94,7 [074CF94E] [69D116C5] CRC32
01 94,7 [FC96345C] [E2907E70]
02 88,3 [68807636] [02A725ED]
03 75,6 [F6E5E0AB] [8B687168]
04 89,2 [558776B2] [085160E7]
05 90,6 [E4B56005] [5B1BE0CA]


Junior's Eyes - Battersea Power Station (1969)

All thanks go to Копысов

Download Junior's Eyes - Battersea Power Station (1969):