Tags
Language
Tags

Koji Kondo/Hirokazu Tanaka - Mario The Music (2004) {Scitron Digital}

Posted By:
Koji Kondo/Hirokazu Tanaka - Mario The Music (2004) {Scitron Digital}

Koji Kondo/Hirokazu Tanaka - Mario The Music (2004) {Scitron Digital}
EAC Rip | FLAC with CUE and log | scans | 340 mb
MP3 CBR 320 kbps | RAR | 159 mb
Genre: electronic

Mario The Music is a 2004 compilation featuring the music of Koji Kondo and Hirokazu Tanaka. They are the creators for many Nintendo video games, songs that became the soundtrack of your youths in different Mario-related games. You will recognize all of this if you have played these games in the last 35 years. This was released by Scitron Digital as part of the Famicon Sound History Series series.

Koji Kondo/Hirokazu Tanaka - Mario The Music (2004) {Scitron Digital}

01. Koji Kondo - Title BGM
02. Koji Kondo - Game Start A ~ Miss ~ Clear ~ Game Start B ~ Restart ~ Extend
03. Koji Kondo - Bonus Stage ~Perfect ~ Game Over
04. Koji Kondo - Overworld BGM ~ Warning ~ Overworld BGM (Hurry Up!)
05. Koji Kondo - Course Clear Fanfare ~ Scene Change BGM
06. Koji Kondo - Underground BGM ~ Warning ~ Underground BGM (Hurry Up!)
07. Koji Kondo - Bonus Stage / Invincible BGM ~ Warning ~ Bonus Stage BGM (Hurry Up!)
08. Koji Kondo - Miss ~ Game Over
09. Koji Kondo - Underwater BGM ~ Warning ~ Underwater BGM (Hurry Up!)
10. Koji Kondo - Koopa Stage BGM ~ Warning ~ Koopa Stage BGM (Hurry Up!) ~ Koopa's Defeated Fanfare
11. Koji Kondo - Ending BGM
12. Koji Kondo - Ending BGM
13. Koji Kondo - Map 1 World
14. Koji Kondo - Overworld BGM ~ Warning ~ Overworld BGM (Hurry Up!)
15. Koji Kondo - Invincible BGM ~ Warning ~ Invincible BGM (Hurry Up!)
16. Koji Kondo - Miss
17. Koji Kondo - Map 2 World
18. Koji Kondo - Athletics BGM ~ Warning ~ Athletics BGM (Hurry Up!)
19. Koji Kondo - Course Clear Fanfare
20. Koji Kondo - Map 3 World
21. Koji Kondo - Underwater BGM ~ Warning ~ Underwater BGM (Hurry Up!)
22. Koji Kondo - Orge
23. Koji Kondo - Slot BGM / Nervous Breakdown BGM
24. Koji Kondo - Map 4 World
25. Koji Kondo - Underground BGM ~ Warning ~ Underground BGM (Hurry Up!)
26. Koji Kondo - Map 5 World
27. Koji Kondo - Enemy Battle ~ Warning ~ Enemy Battle (Hurry Up!)
28. Koji Kondo - Kinopio's House
29. Koji Kondo - Map 6 World
30. Koji Kondo - Fortress BGM ~ Warning ~ Fortress BGM (Hurry Up!)
31. Koji Kondo - Fortress Boss ~ Warning ~ Fortress Boss (Hurry Up!)
32. Koji Kondo - Fireworks Fanfare
33. Koji Kondo - Flute Sound ~ Warp Island (Map 5 Sky World)
34. Koji Kondo - Map 7 World
35. Koji Kondo - King's Room
36. Koji Kondo - Airship BGM ~ Warning ~ Airship BGM (Hurry Up!)
37. Koji Kondo - Map 8 World
38. Koji Kondo - Demon Koopa ~ Warning ~ Demon Koopa (Hurry Up!)
39. Koji Kondo - Koopa Crushing
40. Koji Kondo - World Clear Fanfare
41. Koji Kondo - Ending
42. Koji Kondo - Game Over
43. Hirokazu Tanaka - Title BGM
44. Hirokazu Tanaka - Player Select
45. Hirokazu Tanaka - Overworld BGM
46. Hirokazu Tanaka - Underground BGM
47. Hirokazu Tanaka - Boss
48. Hirokazu Tanaka - Invincible
49. Hirokazu Tanaka - Bonus Start ~ Success ~ Failure
50. Hirokazu Tanaka - Stage Clear
51. Hirokazu Tanaka - Last Boss
52. Hirokazu Tanaka - Ending
53. Hirokazu Tanaka - Game Over
54. Hirokazu Tanaka - Title BGM
55. Hirokazu Tanaka - Select
56. Hirokazu Tanaka - Fever ~ Fever Clear
57. Hirokazu Tanaka - Game Over ~ VS Game Over
58. Hirokazu Tanaka - Chill ~ Chill Clear
59. Hirokazu Tanaka - Level 20 HI Clear (UFO) ~ Ending
60. Hirokazu Tanaka - Title BGM
61. Hirokazu Tanaka - ROUND START
62. Hirokazu Tanaka - [1P] MUSIC TYPE A
63. Hirokazu Tanaka - [1P] MUSIC TYPE B
64. Hirokazu Tanaka - [1P] MUSIC TYPE C
65. Hirokazu Tanaka - ROUND CLEAR
66. Hirokazu Tanaka - L10 CLEAR
67. Hirokazu Tanaka - [1P] MUSIC TYPE D (ROUND11~)
68. Hirokazu Tanaka - STAGE CLEAR
69. Hirokazu Tanaka - CLEAR (True Ending)
70. Hirokazu Tanaka - GAME OVER
71. Hirokazu Tanaka - [VS] MUSIC TYPE A
72. Hirokazu Tanaka - [VS] PANIC
73. Hirokazu Tanaka - [VS] MUSIC TYPE B
74. Hirokazu Tanaka - [VS] BLIND
75. Hirokazu Tanaka - [VS] MUSIC TYPE C
76. Hirokazu Tanaka - [VS] SLAVE
77. Hirokazu Tanaka - [VS] POINT UP,POINT DOWN
78. Hirokazu Tanaka - [VS] POINT GET
79. Hirokazu Tanaka - [VS] CONGRATULATION

EAC extraction logfile from 22. December 2006, 17:31 for CD
Koji Kondo, Hirokazu Tanaka / Mario the Music

Used drive : LITE-ON DVDRW SHM-165H6S Adapter: 0 ID: 0
Read mode : Secure with NO C2, accurate stream, disable cache
Read offset correction : 6
Overread into Lead-In and Lead-Out : No

Used output format : C:\Program Files\FLAC\flac.exe (User Defined Encoder)
320 kBit/s
Additional command line options : -V -8 -T "artist=%a" -T "title=%t" -T "album=%g" -T "date=%y" -T "tracknumber=%n" -T "genre=%m" %s

Other options :
Fill up missing offset samples with silence : Yes
Delete leading and trailing silent blocks : No
Installed external ASPI interface


Track 1
Filename C:\FLAC\Koji Kondo, Hirokazu Tanaka, - Mario The Music (2004) [FLAC] {Scitron Digital}\01 - Mario Bros. - Title BGM.wav

Pre-gap length 0:00:02.00

Peak level 56.3 %
Track quality 100.0 %
Test CRC 66D133FD
Copy CRC 66D133FD
Copy OK

Track 2
Filename C:\FLAC\Koji Kondo, Hirokazu Tanaka, - Mario The Music (2004) [FLAC] {Scitron Digital}\02 - Mario Bros. - Game Start A -Miss -Clear - Game Start B -Restart -Extend.wav

Pre-gap length 0:00:01.00

Peak level 53.1 %
Track quality 100.0 %
Test CRC 87F1A973
Copy CRC 87F1A973
Copy OK

Track 3
Filename C:\FLAC\Koji Kondo, Hirokazu Tanaka, - Mario The Music (2004) [FLAC] {Scitron Digital}\03 - Mario Bros. - Bonus Stage -Perfect -Game Over.wav

Pre-gap length 0:00:01.00

Peak level 36.9 %
Track quality 100.0 %
Test CRC A1D40693
Copy CRC A1D40693
Copy OK

Track 4
Filename C:\FLAC\Koji Kondo, Hirokazu Tanaka, - Mario The Music (2004) [FLAC] {Scitron Digital}\04 - Super Mario Bros. - Ground Stage BGM - Warning -Ground BGM (Hurry up!).wav

Pre-gap length 0:00:02.00

Peak level 74.6 %
Track quality 100.0 %
Test CRC 3FCDA026
Copy CRC 3FCDA026
Copy OK

Track 5
Filename C:\FLAC\Koji Kondo, Hirokazu Tanaka, - Mario The Music (2004) [FLAC] {Scitron Digital}\05 - Super Mario Bros. - Stage Clear Fanfare - Stage Change BGM.wav

Pre-gap length 0:00:01.00

Peak level 62.8 %
Track quality 100.0 %
Test CRC 2CF157FB
Copy CRC 2CF157FB
Copy OK

Track 6
Filename C:\FLAC\Koji Kondo, Hirokazu Tanaka, - Mario The Music (2004) [FLAC] {Scitron Digital}\06 - Super Mario Bros. - Underground Stage BGM -Warning -Underground BGM (Hurry up!).wav

Pre-gap length 0:00:01.00

Peak level 58.1 %
Track quality 100.0 %
Test CRC 4F49EEE4
Copy CRC 4F49EEE4
Copy OK

Track 7
Filename C:\FLAC\Koji Kondo, Hirokazu Tanaka, - Mario The Music (2004) [FLAC] {Scitron Digital}\07 - Super Mario Bros. - Bonus Stage ,Invisible BGM -Warning -Bonus Stage BGM (Hurry up!).wav

Pre-gap length 0:00:01.00

Peak level 75.3 %
Track quality 100.0 %
Test CRC 563D8974
Copy CRC 563D8974
Copy OK

Track 8
Filename C:\FLAC\Koji Kondo, Hirokazu Tanaka, - Mario The Music (2004) [FLAC] {Scitron Digital}\08 - Super Mario Bros. - Miss -Game Over.wav

Pre-gap length 0:00:01.00

Peak level 75.2 %
Track quality 99.2 %
Test CRC D030BB47
Copy CRC D030BB47
Copy OK

Track 9
Filename C:\FLAC\Koji Kondo, Hirokazu Tanaka, - Mario The Music (2004) [FLAC] {Scitron Digital}\09 - Super Mario Bros. - Water Stage BGM -Warning -Water Stage (Hurry up!).wav

Pre-gap length 0:00:02.00

Peak level 67.5 %
Track quality 100.0 %
Test CRC 84629D6E
Copy CRC 84629D6E
Copy OK

Track 10
Filename C:\FLAC\Koji Kondo, Hirokazu Tanaka, - Mario The Music (2004) [FLAC] {Scitron Digital}\10 - Super Mario Bros. - Kuppa Stage BGM -Warning -Kuppa Stage BGM (Hurry up!) - The Fanfare when Kuppa destroyed.wav

Pre-gap length 0:00:01.00

Peak level 65.3 %
Track quality 100.0 %
Test CRC 2CC5071B
Copy CRC 2CC5071B
Copy OK

Track 11
Filename C:\FLAC\Koji Kondo, Hirokazu Tanaka, - Mario The Music (2004) [FLAC] {Scitron Digital}\11 - Super Mario Bros. - Ending BGM.wav

Pre-gap length 0:00:01.00

Peak level 48.5 %
Track quality 99.7 %
Test CRC 73485D11
Copy CRC 73485D11
Copy OK

Track 12
Filename C:\FLAC\Koji Kondo, Hirokazu Tanaka, - Mario The Music (2004) [FLAC] {Scitron Digital}\12 - Super Mario Bros. 2 - Ending BGM.wav

Pre-gap length 0:00:02.00

Peak level 55.7 %
Track quality 100.0 %
Test CRC DE1AE894
Copy CRC DE1AE894
Copy OK

Track 13
Filename C:\FLAC\Koji Kondo, Hirokazu Tanaka, - Mario The Music (2004) [FLAC] {Scitron Digital}\13 - Super Mario Bros. 3 - Map 1 World.wav

Pre-gap length 0:00:03.00

Peak level 95.2 %
Track quality 100.0 %
Test CRC 3F58B067
Copy CRC 3F58B067
Copy OK

Track 14
Filename C:\FLAC\Koji Kondo, Hirokazu Tanaka, - Mario The Music (2004) [FLAC] {Scitron Digital}\14 - Super Mario Bros. 3 - Ground Stage BGM -Warning -Ground Stage BGM (Hurry up!).wav

Pre-gap length 0:00:01.00

Peak level 84.6 %
Track quality 100.0 %
Test CRC 02588542
Copy CRC 02588542
Copy OK

Track 15
Filename C:\FLAC\Koji Kondo, Hirokazu Tanaka, - Mario The Music (2004) [FLAC] {Scitron Digital}\15 - Super Mario Bros. 3 - Invisible BGM -Warning -Invisible BGM (Hurry up!).wav

Pre-gap length 0:00:01.00

Peak level 66.2 %
Track quality 99.5 %
Test CRC 8F31833E
Copy CRC 8F31833E
Copy OK

Track 16
Filename C:\FLAC\Koji Kondo, Hirokazu Tanaka, - Mario The Music (2004) [FLAC] {Scitron Digital}\16 - Super Mario Bros. 3 - Miss.wav

Pre-gap length 0:00:01.00

Peak level 63.9 %
Track quality 100.0 %
Test CRC AFE82443
Copy CRC AFE82443
Copy OK

Track 17
Filename C:\FLAC\Koji Kondo, Hirokazu Tanaka, - Mario The Music (2004) [FLAC] {Scitron Digital}\17 - Super Mario Bros. 3 - Map 2 World.wav

Peak level 71.3 %
Track quality 100.0 %
Test CRC 1CA2A59C
Copy CRC 1CA2A59C
Copy OK

Track 18
Filename C:\FLAC\Koji Kondo, Hirokazu Tanaka, - Mario The Music (2004) [FLAC] {Scitron Digital}\18 - Super Mario Bros. 3 - Athletic Stage BGM -Warning -Athletic Stage BGM (Hurry up!).wav

Pre-gap length 0:00:01.00

Peak level 85.4 %
Track quality 100.0 %
Test CRC FB597CBF
Copy CRC FB597CBF
Copy OK

Track 19
Filename C:\FLAC\Koji Kondo, Hirokazu Tanaka, - Mario The Music (2004) [FLAC] {Scitron Digital}\19 - Super Mario Bros. 3 - Stage Clear Fanfare.wav

Pre-gap length 0:00:01.00

Peak level 83.2 %
Track quality 100.0 %
Test CRC 204D3573
Copy CRC 204D3573
Copy OK

Track 20
Filename C:\FLAC\Koji Kondo, Hirokazu Tanaka, - Mario The Music (2004) [FLAC] {Scitron Digital}\20 - Super Mario Bros. 3 - Map 3 World.wav

Pre-gap length 0:00:01.00

Peak level 78.5 %
Track quality 99.7 %
Test CRC 2117ACFA
Copy CRC 2117ACFA
Copy OK

Track 21
Filename C:\FLAC\Koji Kondo, Hirokazu Tanaka, - Mario The Music (2004) [FLAC] {Scitron Digital}\21 - Super Mario Bros. 3 - Water Stage BGM -Warning -Water Stage (Hurry up!).wav

Pre-gap length 0:00:01.00

Peak level 64.2 %
Track quality 100.0 %
Test CRC 68A6D6C9
Copy CRC 68A6D6C9
Copy OK

Track 22
Filename C:\FLAC\Koji Kondo, Hirokazu Tanaka, - Mario The Music (2004) [FLAC] {Scitron Digital}\22 - Super Mario Bros. 3 - Music Box.wav

Pre-gap length 0:00:02.00

Peak level 41.6 %
Track quality 100.0 %
Test CRC E50B0F43
Copy CRC E50B0F43
Copy OK

Track 23
Filename C:\FLAC\Koji Kondo, Hirokazu Tanaka, - Mario The Music (2004) [FLAC] {Scitron Digital}\23 - Super Mario Bros. 3 - Slot BGM , Card Game BGM.wav

Pre-gap length 0:00:01.00

Peak level 50.1 %
Track quality 100.0 %
Test CRC 8846320B
Copy CRC 8846320B
Copy OK

Track 24
Filename C:\FLAC\Koji Kondo, Hirokazu Tanaka, - Mario The Music (2004) [FLAC] {Scitron Digital}\24 - Super Mario Bros. 3 - Map 4 World.wav

Pre-gap length 0:00:02.00

Peak level 81.5 %
Track quality 100.0 %
Test CRC 6CEF5921
Copy CRC 6CEF5921
Copy OK

Track 25
Filename C:\FLAC\Koji Kondo, Hirokazu Tanaka, - Mario The Music (2004) [FLAC] {Scitron Digital}\25 - Super Mario Bros. 3 - Underground Stage BGM -Warning -Underground Stage BGM (Hurry up!).wav

Pre-gap length 0:00:01.00

Peak level 77.9 %
Track quality 100.0 %
Test CRC 04632BC9
Copy CRC 04632BC9
Copy OK

Track 26
Filename C:\FLAC\Koji Kondo, Hirokazu Tanaka, - Mario The Music (2004) [FLAC] {Scitron Digital}\26 - Super Mario Bros. 3 - Map 5 World.wav

Pre-gap length 0:00:01.00

Peak level 82.6 %
Track quality 100.0 %
Test CRC AC4A392D
Copy CRC AC4A392D
Copy OK

Track 27
Filename C:\FLAC\Koji Kondo, Hirokazu Tanaka, - Mario The Music (2004) [FLAC] {Scitron Digital}\27 - Super Mario Bros. 3 - Enemy Battle -Warning -Enemy Battle (Hurry up!).wav

Pre-gap length 0:00:01.00

Peak level 84.9 %
Track quality 100.0 %
Test CRC 93560F80
Copy CRC 93560F80
Copy OK

Track 28
Filename C:\FLAC\Koji Kondo, Hirokazu Tanaka, - Mario The Music (2004) [FLAC] {Scitron Digital}\28 - Super Mario Bros. 3 - Kinopio's House.wav

Pre-gap length 0:00:01.00

Peak level 67.7 %
Track quality 100.0 %
Test CRC AD7C6A7D
Copy CRC AD7C6A7D
Copy OK

Track 29
Filename C:\FLAC\Koji Kondo, Hirokazu Tanaka, - Mario The Music (2004) [FLAC] {Scitron Digital}\29 - Super Mario Bros. 3 - Map 6 World.wav

Pre-gap length 0:00:01.00

Peak level 71.0 %
Track quality 100.0 %
Test CRC D3B8A906
Copy CRC D3B8A906
Copy OK

Track 30
Filename C:\FLAC\Koji Kondo, Hirokazu Tanaka, - Mario The Music (2004) [FLAC] {Scitron Digital}\30 - Super Mario Bros. 3 - Stronghold Stage BGM -Warning -Stronghold Stage BGM (Hurry up!).wav

Pre-gap length 0:00:01.00

Peak level 67.9 %
Track quality 100.0 %
Test CRC A10A4402
Copy CRC A10A4402
Copy OK

Track 31
Filename C:\FLAC\Koji Kondo, Hirokazu Tanaka, - Mario The Music (2004) [FLAC] {Scitron Digital}\31 - Super Mario Bros. 3 - Stronghold Stage Boss BGM.wav

Pre-gap length 0:00:01.00

Peak level 82.8 %
Track quality 100.0 %
Test CRC E08AEF89
Copy CRC E08AEF89
Copy OK

Track 32
Filename C:\FLAC\Koji Kondo, Hirokazu Tanaka, - Mario The Music (2004) [FLAC] {Scitron Digital}\32 - Super Mario Bros. 3 - Fire Works Fanfare.wav

Pre-gap length 0:00:02.00

Peak level 54.1 %
Track quality 100.0 %
Test CRC C6B8E7ED
Copy CRC C6B8E7ED
Copy OK

Track 33
Filename C:\FLAC\Koji Kondo, Hirokazu Tanaka, - Mario The Music (2004) [FLAC] {Scitron Digital}\33 - Super Mario Bros. 3 - Flute Sound -Warp Island (Map 5 World in the Sky).wav

Pre-gap length 0:00:01.00

Peak level 49.7 %
Track quality 100.0 %
Test CRC 513DE33C
Copy CRC 513DE33C
Copy OK

Track 34
Filename C:\FLAC\Koji Kondo, Hirokazu Tanaka, - Mario The Music (2004) [FLAC] {Scitron Digital}\34 - Super Mario Bros. 3 - Map 7 World.wav

Pre-gap length 0:00:01.00

Peak level 69.0 %
Track quality 100.0 %
Test CRC 7AC7166F
Copy CRC 7AC7166F
Copy OK

Track 35
Filename C:\FLAC\Koji Kondo, Hirokazu Tanaka, - Mario The Music (2004) [FLAC] {Scitron Digital}\35 - Super Mario Bros. 3 - King's Room.wav

Pre-gap length 0:00:01.00

Peak level 41.7 %
Track quality 100.0 %
Test CRC DDB01C29
Copy CRC DDB01C29
Copy OK

Track 36
Filename C:\FLAC\Koji Kondo, Hirokazu Tanaka, - Mario The Music (2004) [FLAC] {Scitron Digital}\36 - Super Mario Bros. 3 - Airship Stage BGM -Warning -Airship Stage BGM (Hurry up!).wav

Pre-gap length 0:00:01.00

Peak level 93.1 %
Track quality 100.0 %
Test CRC 1EF36344
Copy CRC 1EF36344
Copy OK

Track 37
Filename C:\FLAC\Koji Kondo, Hirokazu Tanaka, - Mario The Music (2004) [FLAC] {Scitron Digital}\37 - Super Mario Bros. 3 - Map 8 World.wav

Pre-gap length 0:00:01.00

Peak level 83.9 %
Track quality 100.0 %
Test CRC BF856AEB
Copy CRC BF856AEB
Copy OK

Track 38
Filename C:\FLAC\Koji Kondo, Hirokazu Tanaka, - Mario The Music (2004) [FLAC] {Scitron Digital}\38 - Super Mario Bros. 3 - Satan King Kuppa -Warning -Satan King Kuppa (Hurry up!).wav

Pre-gap length 0:00:01.00

Peak level 81.9 %
Track quality 100.0 %
Test CRC 0667DA76
Copy CRC 0667DA76
Copy OK

Track 39
Filename C:\FLAC\Koji Kondo, Hirokazu Tanaka, - Mario The Music (2004) [FLAC] {Scitron Digital}\39 - Super Mario Bros. 3 - Kuppa Destroyed.wav

Pre-gap length 0:00:01.00

Peak level 58.2 %
Track quality 100.0 %
Test CRC 7F6F56AC
Copy CRC 7F6F56AC
Copy OK

Track 40
Filename C:\FLAC\Koji Kondo, Hirokazu Tanaka, - Mario The Music (2004) [FLAC] {Scitron Digital}\40 - Super Mario Bros. 3 - World Clear.wav

Pre-gap length 0:00:01.00

Peak level 52.5 %
Track quality 100.0 %
Test CRC 0383F3C1
Copy CRC 0383F3C1
Copy OK

Track 41
Filename C:\FLAC\Koji Kondo, Hirokazu Tanaka, - Mario The Music (2004) [FLAC] {Scitron Digital}\41 - Super Mario Bros. 3 - Ending.wav

Pre-gap length 0:00:01.00

Peak level 98.0 %
Track quality 100.0 %
Test CRC A4111495
Copy CRC A4111495
Copy OK

Track 42
Filename C:\FLAC\Koji Kondo, Hirokazu Tanaka, - Mario The Music (2004) [FLAC] {Scitron Digital}\42 - Super Mario Bros. 3 - Game Over.wav

Pre-gap length 0:00:01.00

Peak level 54.6 %
Track quality 100.0 %
Test CRC A38727C9
Copy CRC A38727C9
Copy OK

Track 43
Filename C:\FLAC\Koji Kondo, Hirokazu Tanaka, - Mario The Music (2004) [FLAC] {Scitron Digital}\43 - Super Mario USA - Title BGM.wav

Pre-gap length 0:00:02.00

Peak level 66.8 %
Track quality 100.0 %
Test CRC 379F7D7D
Copy CRC 379F7D7D
Copy OK

Track 44
Filename C:\FLAC\Koji Kondo, Hirokazu Tanaka, - Mario The Music (2004) [FLAC] {Scitron Digital}\44 - Super Mario USA - Player Select.wav

Pre-gap length 0:00:02.00

Peak level 66.8 %
Track quality 100.0 %
Test CRC CC9CB13F
Copy CRC CC9CB13F
Copy OK

Track 45
Filename C:\FLAC\Koji Kondo, Hirokazu Tanaka, - Mario The Music (2004) [FLAC] {Scitron Digital}\45 - Super Mario USA - Ground Stage BGM.wav

Peak level 55.6 %
Track quality 100.0 %
Test CRC FDA9B7BB
Copy CRC FDA9B7BB
Copy OK

Track 46
Filename C:\FLAC\Koji Kondo, Hirokazu Tanaka, - Mario The Music (2004) [FLAC] {Scitron Digital}\46 - Super Mario USA - Underground Stage BGM.wav

Pre-gap length 0:00:01.00

Peak level 66.8 %
Track quality 100.0 %
Test CRC F36E292A
Copy CRC F36E292A
Copy OK

Track 47
Filename C:\FLAC\Koji Kondo, Hirokazu Tanaka, - Mario The Music (2004) [FLAC] {Scitron Digital}\47 - Super Mario USA - Boss.wav

Peak level 56.9 %
Track quality 100.0 %
Test CRC A3ED705B
Copy CRC A3ED705B
Copy OK

Track 48
Filename C:\FLAC\Koji Kondo, Hirokazu Tanaka, - Mario The Music (2004) [FLAC] {Scitron Digital}\48 - Super Mario USA - Invisible.wav

Peak level 62.3 %
Track quality 100.0 %
Test CRC 895CC45A
Copy CRC 895CC45A
Copy OK

Track 49
Filename C:\FLAC\Koji Kondo, Hirokazu Tanaka, - Mario The Music (2004) [FLAC] {Scitron Digital}\49 - Super Mario USA - Bonus Start -Win -Lost.wav

Peak level 42.5 %
Track quality 100.0 %
Test CRC A5AD22AC
Copy CRC A5AD22AC
Copy OK

Track 50
Filename C:\FLAC\Koji Kondo, Hirokazu Tanaka, - Mario The Music (2004) [FLAC] {Scitron Digital}\50 - Super Mario USA - Stage Clear.wav

Pre-gap length 0:00:02.00

Peak level 47.7 %
Track quality 100.0 %
Test CRC 10BDADAD
Copy CRC 10BDADAD
Copy OK

Track 51
Filename C:\FLAC\Koji Kondo, Hirokazu Tanaka, - Mario The Music (2004) [FLAC] {Scitron Digital}\51 - Super Mario USA - The Final Boss.wav

Pre-gap length 0:00:02.00

Peak level 58.4 %
Track quality 100.0 %
Test CRC F195BA42
Copy CRC F195BA42
Copy OK

Track 52
Filename C:\FLAC\Koji Kondo, Hirokazu Tanaka, - Mario The Music (2004) [FLAC] {Scitron Digital}\52 - Super Mario USA - Ending.wav

Peak level 52.0 %
Track quality 100.0 %
Test CRC CDCA5730
Copy CRC CDCA5730
Copy OK

Track 53
Filename C:\FLAC\Koji Kondo, Hirokazu Tanaka, - Mario The Music (2004) [FLAC] {Scitron Digital}\53 - Super Mario USA - Game Over.wav

Peak level 46.4 %
Track quality 98.4 %
Test CRC 898A581D
Copy CRC 898A581D
Copy OK

Track 54
Filename C:\FLAC\Koji Kondo, Hirokazu Tanaka, - Mario The Music (2004) [FLAC] {Scitron Digital}\54 - Dr. Mario - Title BGM.wav

Pre-gap length 0:00:02.00

Peak level 70.1 %
Track quality 100.0 %
Test CRC 644DDDDB
Copy CRC 644DDDDB
Copy OK

Track 55
Filename C:\FLAC\Koji Kondo, Hirokazu Tanaka, - Mario The Music (2004) [FLAC] {Scitron Digital}\55 - Dr. Mario - Select.wav

Pre-gap length 0:00:01.00

Peak level 80.2 %
Track quality 100.0 %
Test CRC 69037AB5
Copy CRC 69037AB5
Copy OK

Track 56
Filename C:\FLAC\Koji Kondo, Hirokazu Tanaka, - Mario The Music (2004) [FLAC] {Scitron Digital}\56 - Dr. Mario - Fever -Fever Clear.wav

Pre-gap length 0:00:01.00

Peak level 78.8 %
Track quality 99.8 %
Test CRC 0836C40B
Copy CRC 0836C40B
Copy OK

Track 57
Filename C:\FLAC\Koji Kondo, Hirokazu Tanaka, - Mario The Music (2004) [FLAC] {Scitron Digital}\57 - Dr. Mario - Game Over -VS Game Over.wav

Pre-gap length 0:00:01.00

Peak level 75.0 %
Track quality 100.0 %
Test CRC 9EECB69D
Copy CRC 9EECB69D
Copy OK

Track 58
Filename C:\FLAC\Koji Kondo, Hirokazu Tanaka, - Mario The Music (2004) [FLAC] {Scitron Digital}\58 - Dr. Mario - Chill -Chill Clear.wav

Pre-gap length 0:00:01.00

Peak level 68.0 %
Track quality 99.9 %
Test CRC 44D33CD5
Copy CRC 44D33CD5
Copy OK

Track 59
Filename C:\FLAC\Koji Kondo, Hirokazu Tanaka, - Mario The Music (2004) [FLAC] {Scitron Digital}\59 - Dr. Mario - Level 20 HI Clear (UFO) -Ending.wav

Pre-gap length 0:00:01.00

Peak level 69.2 %
Track quality 100.0 %
Test CRC FED5600A
Copy CRC FED5600A
Copy OK

Track 60
Filename C:\FLAC\Koji Kondo, Hirokazu Tanaka, - Mario The Music (2004) [FLAC] {Scitron Digital}\60 - Yoshi's Cookie - Title BGM.wav

Pre-gap length 0:00:02.00

Peak level 53.3 %
Track quality 100.0 %
Test CRC 8F0DB63F
Copy CRC 8F0DB63F
Copy OK

Track 61
Filename C:\FLAC\Koji Kondo, Hirokazu Tanaka, - Mario The Music (2004) [FLAC] {Scitron Digital}\61 - Yoshi's Cookie - Round Start.wav

Pre-gap length 0:00:01.00

Peak level 49.7 %
Track quality 100.0 %
Test CRC 8BCC85F3
Copy CRC 8BCC85F3
Copy OK

Track 62
Filename C:\FLAC\Koji Kondo, Hirokazu Tanaka, - Mario The Music (2004) [FLAC] {Scitron Digital}\62 - Yoshi's Cookie - 1P Music Type A.wav

Peak level 61.6 %
Track quality 100.0 %
Test CRC A927DBE1
Copy CRC A927DBE1
Copy OK

Track 63
Filename C:\FLAC\Koji Kondo, Hirokazu Tanaka, - Mario The Music (2004) [FLAC] {Scitron Digital}\63 - Yoshi's Cookie - 1P Music Type B.wav

Pre-gap length 0:00:01.00

Peak level 58.6 %
Track quality 100.0 %
Test CRC ED8A6930
Copy CRC ED8A6930
Copy OK

Track 64
Filename C:\FLAC\Koji Kondo, Hirokazu Tanaka, - Mario The Music (2004) [FLAC] {Scitron Digital}\64 - Yoshi's Cookie - 1P Music Type C.wav

Pre-gap length 0:00:02.00

Peak level 68.2 %
Track quality 100.0 %
Test CRC 5A0D9BA1
Copy CRC 5A0D9BA1
Copy OK

Track 65
Filename C:\FLAC\Koji Kondo, Hirokazu Tanaka, - Mario The Music (2004) [FLAC] {Scitron Digital}\65 - Yoshi's Cookie - Round Clear.wav

Pre-gap length 0:00:01.00

Peak level 54.7 %
Track quality 99.0 %
Test CRC A567AADF
Copy CRC A567AADF
Copy OK

Track 66
Filename C:\FLAC\Koji Kondo, Hirokazu Tanaka, - Mario The Music (2004) [FLAC] {Scitron Digital}\66 - Yoshi's Cookie - L10 Clear.wav

Pre-gap length 0:00:01.00

Peak level 50.6 %
Track quality 100.0 %
Test CRC E4CE78D2
Copy CRC E4CE78D2
Copy OK

Track 67
Filename C:\FLAC\Koji Kondo, Hirokazu Tanaka, - Mario The Music (2004) [FLAC] {Scitron Digital}\67 - Yoshi's Cookie - 1P Music Type D (Round 11-).wav

Pre-gap length 0:00:02.00

Peak level 44.9 %
Track quality 99.8 %
Test CRC C9B895B9
Copy CRC C9B895B9
Copy OK

Track 68
Filename C:\FLAC\Koji Kondo, Hirokazu Tanaka, - Mario The Music (2004) [FLAC] {Scitron Digital}\68 - Yoshi's Cookie - Stage Clear.wav

Pre-gap length 0:00:01.00

Peak level 32.0 %
Track quality 100.0 %
Test CRC E8E87382
Copy CRC E8E87382
Copy OK

Track 69
Filename C:\FLAC\Koji Kondo, Hirokazu Tanaka, - Mario The Music (2004) [FLAC] {Scitron Digital}\69 - Yoshi's Cookie - Clear (The Real Ending).wav

Pre-gap length 0:00:01.00

Peak level 68.5 %
Track quality 99.8 %
Test CRC 0A6BD6BF
Copy CRC 0A6BD6BF
Copy OK

Track 70
Filename C:\FLAC\Koji Kondo, Hirokazu Tanaka, - Mario The Music (2004) [FLAC] {Scitron Digital}\70 - Yoshi's Cookie - Game Over.wav

Pre-gap length 0:00:02.00

Peak level 43.4 %
Track quality 97.8 %
Test CRC 786B53C2
Copy CRC 786B53C2
Copy OK

Track 71
Filename C:\FLAC\Koji Kondo, Hirokazu Tanaka, - Mario The Music (2004) [FLAC] {Scitron Digital}\71 - Yoshi's Cookie - VS Music Type A.wav

Peak level 55.7 %
Track quality 99.7 %
Test CRC 94444FD0
Copy CRC 94444FD0
Copy OK

Track 72
Filename C:\FLAC\Koji Kondo, Hirokazu Tanaka, - Mario The Music (2004) [FLAC] {Scitron Digital}\72 - Yoshi's Cookie - VS Panic.wav

Pre-gap length 0:00:01.00

Peak level 42.7 %
Track quality 100.0 %
Test CRC 61C883CC
Copy CRC 61C883CC
Copy OK

Track 73
Filename C:\FLAC\Koji Kondo, Hirokazu Tanaka, - Mario The Music (2004) [FLAC] {Scitron Digital}\73 - Yoshi's Cookie - VS Music Type B.wav

Pre-gap length 0:00:01.00

Peak level 54.2 %
Track quality 100.0 %
Test CRC 9DE98BF3
Copy CRC 9DE98BF3
Copy OK

Track 74
Filename C:\FLAC\Koji Kondo, Hirokazu Tanaka, - Mario The Music (2004) [FLAC] {Scitron Digital}\74 - Yoshi's Cookie - VS Blind.wav

Pre-gap length 0:00:01.00

Peak level 50.7 %
Track quality 100.0 %
Test CRC 0FE787B8
Copy CRC 0FE787B8
Copy OK

Track 75
Filename C:\FLAC\Koji Kondo, Hirokazu Tanaka, - Mario The Music (2004) [FLAC] {Scitron Digital}\75 - Yoshi's Cookie - VS Music Type C.wav

Pre-gap length 0:00:01.00

Peak level 63.5 %
Track quality 100.0 %
Test CRC 589B12D6
Copy CRC 589B12D6
Copy OK

Track 76
Filename C:\FLAC\Koji Kondo, Hirokazu Tanaka, - Mario The Music (2004) [FLAC] {Scitron Digital}\76 - Yoshi's Cookie - VS Slave.wav

Pre-gap length 0:00:01.00

Peak level 48.7 %
Track quality 99.4 %
Test CRC 93FCA0E3
Copy CRC 93FCA0E3
Copy OK

Track 77
Filename C:\FLAC\Koji Kondo, Hirokazu Tanaka, - Mario The Music (2004) [FLAC] {Scitron Digital}\77 - Yoshi's Cookie - VS Point Up, Point Down.wav

Pre-gap length 0:00:01.00

Peak level 36.5 %
Track quality 100.0 %
Test CRC 0C2BB62A
Copy CRC 0C2BB62A
Copy OK

Track 78
Filename C:\FLAC\Koji Kondo, Hirokazu Tanaka, - Mario The Music (2004) [FLAC] {Scitron Digital}\78 - Yoshi's Cookie - VS Point Get.wav

Pre-gap length 0:00:01.00

Peak level 46.8 %
Track quality 100.0 %
Test CRC 6B84D9A4
Copy CRC 6B84D9A4
Copy OK

Track 79
Filename C:\FLAC\Koji Kondo, Hirokazu Tanaka, - Mario The Music (2004) [FLAC] {Scitron Digital}\79 - Yoshi's Cookie - VS Congratulation.wav

Pre-gap length 0:00:01.00

Peak level 48.7 %
Track quality 100.0 %
Test CRC C0DF3D43
Copy CRC C0DF3D43
Copy OK

No errors occured


End of status report


Koji Kondo/Hirokazu Tanaka - Mario The Music (2004) {Scitron Digital}


Thank you to the original uploader.