Tags
Language
Tags

KISS - Gold (2005) [Japan LTD SHM-CD, 2008] 2CD

Posted By: Andi_Deris
KISS - Gold (2005) [Japan LTD SHM-CD, 2008] 2CD

KISS - Gold (2005) [Japan LTD SHM-CD, 2008] 2CD
EAC Rip | FLAC: Image+Cue+Log | 1.1 Gb | MP3 CBR 320 kbps | 417 Mb | Scans | 570 Mb | TTime: 02:31:33
Hard Rock, Heavy Metal, Glam Metal | Universal Music Japan | UICY-90890/1

Gold is a 2005 greatest hits collection from hard rock band KISS. This two-disc set covers the band's recordings from 1974 to 1982. KISS Gold (2008 Japanese exclusive limited edition 40-track digitally remastered 2-disc SHM-CD album set.

KISS - Gold (2005) [Japan LTD SHM-CD, 2008] 2CD




KISS - Gold (2005) [Japan LTD SHM-CD, 2008] 2CD


Disc 1

01. Strutter (3:12)
02. Nothin' To Lose (3:27)
03. Firehouse (3:18)
04. Deuce (3:05)
05. Black Diamond (5:12)
06. Got To Choose (3:54)
07. Parasite (3:04)
08. Hotter Than Hell (3:32)
09. C'mon And Love Me (3:00)
10. She (4:08)
11. Anything For My Baby (2:34)
12. Rock Bottom [Live] (3:47)
13. Cold Gin [Live] (6:59)
14. Rock And Roll All Nite [Live] (4:18)
15. Let Me Go, Rock 'N Roll [Live] (5:46)
16. Detroit Rock City (5:17)
17. King Of The Night Time World (3:19)
18. Shout It Out Loud (2:50)
19. Beth (2:48)
20. Do You Love Me? (3:35)

KISS - Gold (2005) [Japan LTD SHM-CD, 2008] 2CD


Disc 2

01. I Want You (3:04)
02. Calling Dr. Love (3:44)
03. Hard Luck Woman (3:35)
04. I Stole Your Love (3:06)
05. Love Gun (3:17)
06. Christine Sixteen (3:15)
07. Shock Me (3:49)
08. Makin' Love [Live] (3:15)
09. God Of Thunder [Live] (5:21)
10. Tonight You Belong To Me (4:43)
11. New York Groove (3:04)
12. Radioactive (2:59)
13. Don't You Let Me Down (3:46)
14. I Was Made For Loving You (4:32)
15. Sure Know Something (4:03)
16. Shandi (3:37)
17. Talk To Me (4:05)
18. A World Without Heroes (2:42)
19. Nowhere To Run (4:32)
20. I'm A Legend Tonight (3:59)

Compilation produced by Bill Levenson

The Band

• Paul Stanley - lead and backing vocals, rhythm guitar
• Gene Simmons - lead and backing vocals, bass guitar
• Peter Criss - drums, percussion, backing and lead vocals
• Ace Frehley - lead guitar, backing and lead vocals
• Eric Carr - drums, percussion, backing vocals (Disc 2 tracks 18-20)

Notes

SHM-CD reissue featuring the 2005 edit of this release. The high quality SHM-CD (Super High Material CD) format features enhanced audio quality through the use of a special polycarbonate plastic. Using a process developed by JVC and Universal Music Japan discovered through the joint companies' research into LCD display manufacturing, SHM-CDs feature improved transparency on the data side of the disc, allowing for more accurate reading of CD data by the CD player laser head. SHM-CD format CDs are fully compatible with standard CD players. This release is also part of the 200-album SHM-CD Series Campaign from Universal Music Japan.

KISS - Gold (2005) [Japan LTD SHM-CD, 2008] 2CD


Exact Audio Copy V0.99 prebeta 5 from 4. May 2009

Отчёт EAC об извлечении, выполненном 25. апреля 2010, 0:40

Kiss / Gold (CD 1)

Дисковод: HL-DT-STDVDRAM GSA-4084N Adapter: 0 ID: 0

Режим чтения : Достоверность
Использование точного потока : Да
Отключение кэша аудио : Да
Использование указателей C2 : Нет

Коррекция смещения при чтении : 667
Способность читать области Lead-in и Lead-out : Нет
Заполнение пропущенных сэмплов тишиной : Да
Удаление блоков с тишиной в начале и конце : Нет
При вычислениях CRC использовались нулевые сэмплы : Да
Интерфейс : Встроенный Win32-интерфейс для Win NT/2000

Выходной формат : Внутренние WAV-операции
Формат сэмплов : 44.100 Гц; 16 бит; стерео


TOC извлечённого CD

Трек | Старт | Длительность | Начальный сектор | Конечный сектор
––––––––––––––––––––––––––––––––––-
1 | 0:00.00 | 3:12.00 | 0 | 14399
2 | 3:12.00 | 3:27.05 | 14400 | 29929
3 | 6:39.05 | 3:18.67 | 29930 | 44846
4 | 9:57.72 | 3:05.43 | 44847 | 58764
5 | 13:03.40 | 5:12.70 | 58765 | 82234
6 | 18:16.35 | 3:54.47 | 82235 | 99831
7 | 22:11.07 | 3:04.30 | 99832 | 113661
8 | 25:15.37 | 3:32.55 | 113662 | 129616
9 | 28:48.17 | 3:00.05 | 129617 | 143121
10 | 31:48.22 | 4:08.40 | 143122 | 161761
11 | 35:56.62 | 2:34.25 | 161762 | 173336
12 | 38:31.12 | 3:47.50 | 173337 | 190411
13 | 42:18.62 | 6:59.18 | 190412 | 221854
14 | 49:18.05 | 4:18.65 | 221855 | 241269
15 | 53:36.70 | 5:46.45 | 241270 | 267264
16 | 59:23.40 | 5:17.52 | 267265 | 291091
17 | 64:41.17 | 3:19.33 | 291092 | 306049
18 | 68:00.50 | 2:50.60 | 306050 | 318859
19 | 70:51.35 | 2:48.35 | 318860 | 331494
20 | 73:39.70 | 3:35.00 | 331495 | 347619


Характеристики диапазона извлечения и сообщения об ошибках

Выбранный диапазон

Имя файла I:\Music\KISS\KISS Gold Lossless\CD1\Kiss - Gold (CD 1).wav

Пиковый уровень 95.4 %
Качество диапазона 100.0 %
CRC копии 9E6A38C3
Копирование… OK

Ошибок не произошло


AccurateRip: сводка

Трек 1 нет в базе данных
Трек 2 нет в базе данных
Трек 3 нет в базе данных
Трек 4 нет в базе данных
Трек 5 нет в базе данных
Трек 6 нет в базе данных
Трек 7 нет в базе данных
Трек 8 нет в базе данных
Трек 9 нет в базе данных
Трек 10 нет в базе данных
Трек 11 нет в базе данных
Трек 12 нет в базе данных
Трек 13 нет в базе данных
Трек 14 нет в базе данных
Трек 15 нет в базе данных
Трек 16 нет в базе данных
Трек 17 нет в базе данных
Трек 18 нет в базе данных
Трек 19 нет в базе данных
Трек 20 нет в базе данных

Ни одного трека нет в базе AccurateRip

Конец отчёта

Exact Audio Copy V0.99 prebeta 5 from 4. May 2009

Отчёт EAC об извлечении, выполненном 25. апреля 2010, 0:14

Kiss / Gold (CD 2)

Дисковод: HL-DT-STDVDRAM GSA-4084N Adapter: 0 ID: 0

Режим чтения : Достоверность
Использование точного потока : Да
Отключение кэша аудио : Да
Использование указателей C2 : Нет

Коррекция смещения при чтении : 667
Способность читать области Lead-in и Lead-out : Нет
Заполнение пропущенных сэмплов тишиной : Да
Удаление блоков с тишиной в начале и конце : Нет
При вычислениях CRC использовались нулевые сэмплы : Да
Интерфейс : Встроенный Win32-интерфейс для Win NT/2000

Выходной формат : Внутренние WAV-операции
Формат сэмплов : 44.100 Гц; 16 бит; стерео


TOC извлечённого CD

Трек | Старт | Длительность | Начальный сектор | Конечный сектор
––––––––––––––––––––––––––––––––––-
1 | 0:00.00 | 3:04.58 | 0 | 13857
2 | 3:04.58 | 3:44.66 | 13858 | 30723
3 | 6:49.49 | 3:35.07 | 30724 | 46855
4 | 10:24.56 | 3:06.02 | 46856 | 60807
5 | 13:30.58 | 3:17.48 | 60808 | 75630
6 | 16:48.31 | 3:15.20 | 75631 | 90275
7 | 20:03.51 | 3:48.73 | 90276 | 107448
8 | 23:52.49 | 3:15.39 | 107449 | 122112
9 | 27:08.13 | 5:21.16 | 122113 | 146203
10 | 32:29.29 | 4:42.70 | 146204 | 167423
11 | 37:12.24 | 3:04.55 | 167424 | 181278
12 | 40:17.04 | 2:59.50 | 181279 | 194753
13 | 43:16.54 | 3:45.70 | 194754 | 211698
14 | 47:02.49 | 4:32.01 | 211699 | 232099
15 | 51:34.50 | 4:03.28 | 232100 | 250352
16 | 55:38.03 | 3:37.02 | 250353 | 266629
17 | 59:15.05 | 4:05.30 | 266630 | 285034
18 | 63:20.35 | 2:42.26 | 285035 | 297210
19 | 66:02.61 | 4:32.16 | 297211 | 317626
20 | 70:35.02 | 3:59.06 | 317627 | 335557


Характеристики диапазона извлечения и сообщения об ошибках

Выбранный диапазон

Имя файла I:\Music\KISS\KISS Gold Lossless\CD2\Kiss - Gold (CD 2).wav

Пиковый уровень 95.4 %
Качество диапазона 100.0 %
CRC копии F726C00A
Копирование… OK

Ошибок не произошло


AccurateRip: сводка

Трек 1 точное извлечение (доверие 50) [52ECEA2D]
Трек 2 точное извлечение (доверие 51) [4E744362]
Трек 3 точное извлечение (доверие 49) [B92CEA5E]
Трек 4 точное извлечение (доверие 50) [DC267DAC]
Трек 5 точное извлечение (доверие 50) [884BBF52]
Трек 6 точное извлечение (доверие 50) [B1D3A465]
Трек 7 точное извлечение (доверие 50) [63FD7EA0]
Трек 8 точное извлечение (доверие 50) [3158AC68]
Трек 9 точное извлечение (доверие 50) [9E8EE822]
Трек 10 точное извлечение (доверие 50) [6F1772F3]
Трек 11 точное извлечение (доверие 50) [63E7371E]
Трек 12 точное извлечение (доверие 50) [46E5FEE5]
Трек 13 точное извлечение (доверие 49) [123AE8F8]
Трек 14 точное извлечение (доверие 51) [6248CC1B]
Трек 15 точное извлечение (доверие 50) [5B817A06]
Трек 16 точное извлечение (доверие 51) [09EFBB90]
Трек 17 точное извлечение (доверие 51) [6D1970DD]
Трек 18 точное извлечение (доверие 51) [1DB223DE]
Трек 19 точное извлечение (доверие 50) [BD73BD0B]
Трек 20 точное извлечение (доверие 50) [56AB5878]

Все треки извлечены точно

Конец отчёта


Many thanks to the original uploader: tero_74545

SEE also:
KISS 2012 Monster [International Tour Ed., 2013]
KISS 2014 40 Years: Decades Of Decibels [Japanese Ed.] 2CD

Paul Stanley 2008 One Live Kiss (DVD9)

Stream 1998 Nothing Is Sacred [Japanese Ed.]
–––––––––
Nitroflare