Subcategories
Tags
Language
Tags

Kyoto Jazz Massive - Spirit Of The Sun (2007) {Compost}

Posted By: TestTickles
Kyoto Jazz Massive - Spirit Of The Sun (2007) {Compost}

Kyoto Jazz Massive - Spirit Of The Sun (2007) {Compost}
EAC Rip | FLAC with CUE and log | scans | 452 mb
MP3 CBR 320kbps | RAR | 156 mb
Genre: electronic, future jazz, broken beat

Spirit Of The Sun is the 2007 album by the Japanease group Kyoko Jazz Massive. This was released on the Compost label.

Kyoto Jazz Massive - Spirit Of The Sun (2007) {Compost}

01. The Dawn Introduction (1:25)
02. The Brightness Of These Days (6:14)
03. Mind Expansions (8:07)
04. Deep In Your Mind (7:25)
05. Stargazer (6:46)
06. Eclipse (7:37)
07. Between The Lights (6:35)
08. Shine (7:10)
09. Substream (6:35)
10. Behind The Shadow (8:06)
11. M.E. Outroduction (1:55)

Exact Audio Copy V0.99 prebeta 3 from 28. July 2007

Отчёт EAC об извлечении, выполненном 10. апреля 2008, 20:14

Kyoto Jazz Massive / Spirit Of The Sun

Дисковод: PIONEER DVD-RW DVR-110D Adapter: 0 ID: 2

Режим чтения : Достоверность
Использование точного потока : Да
Отключение кэша аудио : Да
Использование указателей C2 : Нет

Коррекция смещения при чтении : 48
Способность читать области Lead-in и Lead-out : Нет
Заполнение пропущенных сэмплов тишиной : Да
Удаление блоков с тишиной в начале и конце : Нет
При вычислениях CRC использовались нулевые сэмплы : Да
Интерфейс : Встроенный Win32-интерфейс для Win NT/2000

Выходной формат : Пользовательский кодировщик
Выбранный битрейт : 128 kBit/s
Качество : Высокий
Добавление ID3-тэга : Нет
Утилита сжатия : C:\Program Files\FLAC\flac.exe
Дополнительные параметры : -T "artist=%a" -T "title=%t" -T "album=%g" -T "date=%y" -T "tracknumber=%n" -T "genre=%m" -5 %s

TOC извлечённого CD

Трек | Старт | Длительность | Начальный сектор | Конечный сектор
––––––––––––––––––––––––––––––––––-
1 | 0:00.00 | 1:25.35 | 0 | 6409
2 | 1:25.35 | 6:14.03 | 6410 | 34462
3 | 7:39.38 | 8:06.51 | 34463 | 70963
4 | 15:46.14 | 7:24.51 | 70964 | 104314
5 | 23:10.65 | 6:45.68 | 104315 | 134757
6 | 29:56.58 | 7:37.12 | 134758 | 169044
7 | 37:33.70 | 6:35.02 | 169045 | 198671
8 | 44:08.72 | 7:10.25 | 198672 | 230946
9 | 51:19.22 | 6:34.49 | 230947 | 260545
10 | 57:53.71 | 8:06.31 | 260546 | 297026
11 | 66:00.27 | 1:55.06 | 297027 | 305657

Характеристики диапазона извлечения и сообщения об ошибках

Выбранный диапазон

Имя файла C:\cuntfist\FLAC\Kyoto Jazz Massive - Spirit Of The Sun (2007) [FLAC] {Compost}\Kyoto Jazz Massive - Spirit Of The Sun.wav

Пиковый уровень 99.9 %
Качество диапазона 99.9 %
CRC копии A2D5AD46
Копирование… OK

Ошибок не произошло

Конец отчёта


Kyoto Jazz Massive - Spirit Of The Sun (2007) {Compost}


Thank you to the original uploader.