Subcategories
Tags
Language
Tags

Kansas - Sail On: The 30th Anniversary Collection 1974-2004 (2009) Re-up

Posted By: v3122
Kansas - Sail On: The 30th Anniversary Collection 1974-2004 (2009) Re-up

Kansas - Sail On: The 30th Anniversary Collection 1974-2004 (2009)
2CD + DVD | Progressive/Classic Rock | EAC Rip | Flac(Image) + Cue + Log | MP3 CBR 320Kbps
DVD: NTSC 4:3 (720x480) VBR 29.97fps, 5204-5507Kbps | AC3, 6ch, 448Kbps -> 4.37 Gb
Epic/Legacy | ~ 1009 + 355 Mb

Sail On: The 30th Anniversary Collection 1974-2004 is certainly the most lovingly crafted of the many Kansas retrospectives. Featuring 27 album cuts that range from classic FM hits like "Dust in the Wind" and "Point of No Return" to fan favorites such as "Song for America," and a 16-track DVD that collects numerous television appearances, videos, and live recordings, Sail On seems to be the definitive tome of the Midwest art rock band's very existence. ~ James Christopher Monger

––––––––––-

Well, once again we are treated to another Kansas "greatest hits/songs" package. However, this one is different in one aspect. It has two CD's & one DVD.

The two CD's basically includes songs from almost every Kansas album, from the self-titled debut "Kansas" to the 2002 release of "Somewhere to Elsewhere". As always, you get a good flavor of how their music evolved through the years. And, as always, you are disappointed with songs that were left out. CD #1 covers the first 4 albums. Noteable missing songs are "Down the Road" from Song for America & "Mysteries & Mayhem" from Masque. But it was good to see "Lamplight Symphony" & "Miracles out of Nowhere" included. Both of which are two of my favorites.

CD #2 starts off with selections from "Point of Know Return". Of course you get the staples (Dust in the Wind, Portrait, and the title track) but you also get two surprises. "Lightning's Hand" & "Sparks of the Tempest" are both great rockers and seems to always be ignored. What is nice about this CD is it continues past Audio-Visions. "Play the Game Tonight" & "Fight Fire with Fire" From the John Elefonte period and "All I Wanted" & "Rainmaker" from the Steve Morse Era shows that Kansas adapted with some success. But why they included Eleanor Rigby here is beyond me. A great song but says nothing really new musically. If you're going to cover a Beatles number at least make it your own. This song was disappointing. The CD ends with "Icarus II" off of Somewhere to Elsewhere.

Now the DVD is really something else. 16 songs with a mix of live & video recordings. This made purchasing the set well worth it. You also get members of Kansas talking between the songs about their experiences. It's interesting to see them in their first TV gigs on Don Kirshner's Rock Concert. They look so young! Fast forward to the last three numbers on the DVD and see them in their "older" appearance. No matter what, the music is never compromised. There is such a high quality to the Music of Kansas.

I would recommend this to ANY Kansas fan, even if you have all the other greatest hits sets. As I said, the DVD is well worth the duplication in music.
By Archie Mercer "Archie", Amazon Customer Review
Kansas - Sail On: The 30th Anniversary Collection 1974-2004 (2009) Re-up

Kansas:

Fusing the complexity of British prog rock with an American heartland sound representative of their name, Kansas were among the most popular bands of the late '70s; though typically dismissed by critics, many of the group's hits remain staples of AOR radio play lists to this day. Formed in Topeka in 1970, the founding members of the group – guitarist Kerry Livgren, bassist Dave Hope, and drummer Phil Ehart – first played together while in high school; with the 1971 addition of classically trained violinist Robbie Steinhardt, they changed their name to White Clover, reverting back to the Kansas moniker for good upon the 1972 arrivals of vocalist/keyboardist Steve Walsh and guitarist Richard Williams. The group spent the early part of the decade touring relentlessly and struggling for recognition; initially, their mix of boogie and prog rock baffled club patrons, but in due time they established a strong enough following to win a record deal with the Kirshner label.

Kansas' self-titled debut LP appeared in 1974; while only mildly successful, the group toured behind it tirelessly, and their fan base grew to the point that their third effort, 1975's Masque, sold a quarter of a million copies. In 1976, Leftoverture truly catapulted Kansas to stardom. On the strength of the smash hit "Carry On Wayward Son," the album reached the Top Five and sold over three million copies. 1977's Point of Know Return was even more successful, spawning the monster hit "Dust in the Wind." While the 1978 live LP Two for the Show struggled to break the Top 40, its studio follow-up, Monolith, the band's first self-produced effort, reached the Top Ten. That same year, Walsh issued a solo record, Schemer-Dreamer.

In the wake of 1980's Audio-Visions, Kansas began to splinter; both Hope and Livgren became born-again Christians, the latter issuing the solo venture Seeds of Change, and their newfound spirituality caused divisions within the band's ranks. Walsh soon quit to form a new band, Streets; the remaining members forged on without him, tapping vocalist John Elefante as his replacement. The first Kansas LP without Walsh, 1982's Vinyl Confessions, launched the hit "Play the Game Tonight," but after only one more album, 1983's Drastic Measures, they disbanded. In 1986, however, Kansas re-formed around Ehart, Williams, and Walsh; adding the famed guitarist Steve Morse as well as bassist Billy Greer, the refurbished band debuted with the album Power, scoring a Top 20 hit with "All I Wanted." When the follow-up, 1988's In the Spirit of Things, failed to hit, seven years passed before the release of their next effort, Freaks of Nature. Always Never the Same followed in 1998. Seeing the return of founder singer/songwriter Kerry Livgren, Somewhere to Elsewhere was released in 2000.

~ Jason Ankeny, Rovi
Tracklist CD1:

01. Can I Tell You
02. Journey From Mariabronn
03. Song For America
04. Lamplight Symphony
05. Icarus (Borne On Wings Of Steel)
06. The Pinnacle
07. Child Of Innocence
08. Carry On Wayward Son
09. Cheyenne Anthem
10. Miracles Out Of Nowhere
11. What's On My Mind

Exact Audio Copy V0.99 prebeta 4 from 23. January 2008

EAC extraction logfile from 28. July 2008, 17:28

Kansas / Sail On: The 30th Anniversary Collection 1974-2004 (Disc 1)

Used drive : MATSHITAUJ-832D Adapter: 0 ID: 0

Read mode : Secure
Utilize accurate stream : Yes
Defeat audio cache : Yes
Make use of C2 pointers : No

Read offset correction : 102
Overread into Lead-In and Lead-Out : No
Fill up missing offset samples with silence : Yes
Delete leading and trailing silent blocks : No
Null samples used in CRC calculations : Yes
Used interface : Native Win32 interface for Win NT & 2000
Gap handling : Appended to previous track

Used output format : User Defined Encoder
Selected bitrate : 128 kBit/s
Quality : High
Add ID3 tag : No
Command line compressor : C:\Program Files\Exact Audio Copy\flac.exe
Additional command line options : -5 -V -T"artist=%a" -T "title=%t" -T "album=%g" -T "date=%y" -T "tracknumber=%n" -T "genre=%m" -T "comment=EAC (Secure Mode) / FLAC 1.2.1 @q5" %s


TOC of the extracted CD

Track | Start | Length | Start sector | End sector
––––––––––––––––––––––––––––-
1 | 0:00.00 | 3:33.67 | 0 | 16041
2 | 3:33.67 | 7:57.45 | 16042 | 51861
3 | 11:31.37 | 10:03.24 | 51862 | 97110
4 | 21:34.61 | 8:15.51 | 97111 | 134286
5 | 29:50.37 | 6:04.63 | 134287 | 161649
6 | 35:55.25 | 9:36.12 | 161650 | 204861
7 | 45:31.37 | 4:36.00 | 204862 | 225561
8 | 50:07.37 | 5:23.25 | 225562 | 249811
9 | 55:30.62 | 6:54.63 | 249812 | 280924
10 | 62:25.50 | 6:28.25 | 280925 | 310049
11 | 68:54.00 | 3:28.37 | 310050 | 325686


Track 1

Filename F:\Kansas\[2004] Sail On- The 30th Anniversary Collection 1974-2004 (Disc 1)\01 - Can I Tell You.wav

Pre-gap length 0:00:02.00

Peak level 94.4 %
Track quality 100.0 %
Test CRC B6AEE0BB
Copy CRC B6AEE0BB
Accurately ripped (confidence 9) [878F3B62]
Copy OK

Track 2

Filename F:\Kansas\[2004] Sail On- The 30th Anniversary Collection 1974-2004 (Disc 1)\02 - Journey From Mariabronn.wav

Pre-gap length 0:00:01.04

Peak level 100.0 %
Track quality 100.0 %
Test CRC 0F09EFED
Copy CRC 0F09EFED
Accurately ripped (confidence 9) [E110C559]
Copy OK

Track 3

Filename F:\Kansas\[2004] Sail On- The 30th Anniversary Collection 1974-2004 (Disc 1)\03 - Song For America.wav

Peak level 100.0 %
Track quality 100.0 %
Test CRC 9A2CAC43
Copy CRC 9A2CAC43
Accurately ripped (confidence 9) [9A864089]
Copy OK

Track 4

Filename F:\Kansas\[2004] Sail On- The 30th Anniversary Collection 1974-2004 (Disc 1)\04 - Lamplight Symphony.wav

Pre-gap length 0:00:01.20

Peak level 99.9 %
Track quality 100.0 %
Test CRC B1D548E7
Copy CRC B1D548E7
Accurately ripped (confidence 9) [0B178B0A]
Copy OK

Track 5

Filename F:\Kansas\[2004] Sail On- The 30th Anniversary Collection 1974-2004 (Disc 1)\05 - Icarus (Borne On Wings Of Steel).wav

Pre-gap length 0:00:00.56

Peak level 88.1 %
Track quality 100.0 %
Test CRC DF283DB1
Copy CRC DF283DB1
Accurately ripped (confidence 9) [A985BDFA]
Copy OK

Track 6

Filename F:\Kansas\[2004] Sail On- The 30th Anniversary Collection 1974-2004 (Disc 1)\06 - The Pinnacle.wav

Pre-gap length 0:00:00.40

Peak level 99.9 %
Track quality 100.0 %
Test CRC 48B83D58
Copy CRC 48B83D58
Accurately ripped (confidence 9) [8C33F406]
Copy OK

Track 7

Filename F:\Kansas\[2004] Sail On- The 30th Anniversary Collection 1974-2004 (Disc 1)\07 - Child Of Innocence.wav

Pre-gap length 0:00:01.24

Peak level 89.1 %
Track quality 100.0 %
Test CRC 3A3FFEBC
Copy CRC 3A3FFEBC
Accurately ripped (confidence 9) [2C058798]
Copy OK

Track 8

Filename F:\Kansas\[2004] Sail On- The 30th Anniversary Collection 1974-2004 (Disc 1)\08 - Carry On Wayward Son.wav

Pre-gap length 0:00:01.07

Peak level 100.0 %
Track quality 100.0 %
Test CRC 9E2A1D88
Copy CRC 9E2A1D88
Accurately ripped (confidence 9) [D097E0B6]
Copy OK

Track 9

Filename F:\Kansas\[2004] Sail On- The 30th Anniversary Collection 1974-2004 (Disc 1)\09 - Cheyenne Anthem.wav

Pre-gap length 0:00:00.16

Peak level 100.0 %
Track quality 100.0 %
Test CRC 47478E4C
Copy CRC 47478E4C
Accurately ripped (confidence 9) [AD7DEA45]
Copy OK

Track 10

Filename F:\Kansas\[2004] Sail On- The 30th Anniversary Collection 1974-2004 (Disc 1)\10 - Miracles Out Of Nowhere.wav

Pre-gap length 0:00:01.22

Peak level 100.0 %
Track quality 100.0 %
Test CRC 6264B920
Copy CRC 6264B920
Accurately ripped (confidence 9) [64117A79]
Copy OK

Track 11

Filename F:\Kansas\[2004] Sail On- The 30th Anniversary Collection 1974-2004 (Disc 1)\11 - What's On My Mind.wav

Pre-gap length 0:00:01.32

Peak level 100.0 %
Track quality 100.0 %
Test CRC BD0EB8C4
Copy CRC BD0EB8C4
Accurately ripped (confidence 8) [76474890]
Copy OK


All tracks accurately ripped

No errors occurred

End of status report

AUDIOCHECKER v2.0 beta (build 457) - by Dester - opdester@freemail.hu
~~~~~~~~~~~~~~~~~~~~~~~~~~~~~~~~~~
-=== DO NOT EDIT THIS FILE! ===-

Path: …\2004 - Sail On - The 30th Anniversary Collection 1974-2004 - cd 1

1 -=- Kansas - Sail On_ The 30th Anniversary Collection 1974-2004 (Disc 01).flac -=- CDDA (99%)

265223012

[Verification date: 06.04.2011 14:05:54]
[Disc ID: 001f667a-0110198c-9910f60b]
Track [ CRC ] Status
01 [878f3b62] (18/18) Accurately ripped as in pressing(s) #1
02 [e110c559] (18/18) Accurately ripped as in pressing(s) #1
03 [9a864089] (18/18) Accurately ripped as in pressing(s) #1
04 [0b178b0a] (18/18) Accurately ripped as in pressing(s) #1
05 [a985bdfa] (18/18) Accurately ripped as in pressing(s) #1
06 [8c33f406] (18/18) Accurately ripped as in pressing(s) #1
07 [2c058798] (18/18) Accurately ripped as in pressing(s) #1
08 [d097e0b6] (18/18) Accurately ripped as in pressing(s) #1
09 [ad7dea45] (18/18) Accurately ripped as in pressing(s) #1
10 [64117a79] (18/18) Accurately ripped as in pressing(s) #1
11 [76474890] (16/16) Accurately ripped as in pressing(s) #1

Track [ CRC32 ] [W/O NULL] [ LOG ]
– [FDDAF468] [DEAF565E]
01 [B6AEE0BB] [4FBC5579] CRC32
02 [0F09EFED] [017620F6] CRC32
03 [9A2CAC43] [9DAACD72] CRC32
04 [B1D548E7] [F5B4E196] CRC32
05 [DF283DB1] [7A539879] CRC32
06 [48B83D58] [ADD61D40] CRC32
07 [3A3FFEBC] [8B7FD2D1] CRC32
08 [9E2A1D88] [AF052C91] CRC32
09 [47478E4C] [D09405E0] CRC32
10 [6264B920] [20F6760A] CRC32
11 [BD0EB8C4] [DDC27DB2] CRC32

Tracklist CD2:

01. Point Of Know Return
02. Portrait (He Knew)
03. Dust In The Wind
04. Lightning's Hand
05. Sparks Of The Tempest
06. Paradox
07. People On The South Wind
08. Hold On
09. Got To Rock On
10. Play The Game Tonight
11. Fight Fire With Fire
12. All I Wanted
13. Rainmaker
14. Desperate Times
15. Eleanor Rigby
16. Icarus II

Exact Audio Copy V0.99 prebeta 4 from 23. January 2008

EAC extraction logfile from 28. July 2008, 18:56

Kansas / Sail On: The 30th Anniversary Collection 1974-2004

Used drive : MATSHITAUJ-832D Adapter: 0 ID: 0

Read mode : Secure
Utilize accurate stream : Yes
Defeat audio cache : Yes
Make use of C2 pointers : No

Read offset correction : 102
Overread into Lead-In and Lead-Out : No
Fill up missing offset samples with silence : Yes
Delete leading and trailing silent blocks : No
Null samples used in CRC calculations : Yes
Used interface : Native Win32 interface for Win NT & 2000
Gap handling : Appended to previous track

Used output format : User Defined Encoder
Selected bitrate : 128 kBit/s
Quality : High
Add ID3 tag : No
Command line compressor : C:\Program Files\Exact Audio Copy\flac.exe
Additional command line options : -5 -V -T"artist=%a" -T "title=%t" -T "album=%g" -T "date=%y" -T "tracknumber=%n" -T "genre=%m" -T "comment=EAC (Secure Mode) / FLAC 1.2.1 @q5" %s


TOC of the extracted CD

Track | Start | Length | Start sector | End sector
––––––––––––––––––––––––––––-
1 | 0:00.00 | 3:13.46 | 0 | 14520
2 | 3:13.46 | 4:35.41 | 14521 | 35186
3 | 7:49.12 | 3:26.13 | 35187 | 50649
4 | 11:15.25 | 4:23.62 | 50650 | 70436
5 | 15:39.12 | 4:16.13 | 70437 | 89649
6 | 19:55.25 | 4:09.37 | 89650 | 108361
7 | 24:04.62 | 3:39.32 | 108362 | 124818
8 | 27:44.19 | 3:52.13 | 124819 | 142231
9 | 31:36.32 | 3:22.30 | 142232 | 157411
10 | 34:58.62 | 3:27.30 | 157412 | 172966
11 | 38:26.17 | 3:41.18 | 172967 | 189559
12 | 42:07.35 | 3:23.30 | 189560 | 204814
13 | 45:30.65 | 6:47.05 | 204815 | 235344
14 | 52:17.70 | 5:26.55 | 235345 | 259849
15 | 57:44.50 | 3:23.12 | 259850 | 275086
16 | 61:07.62 | 7:15.61 | 275087 | 307772


Track 1

Filename F:\Kansas\[2004] Sail On- The 30th Anniversary Collection 1974-2004\01 - Point Of Know Return.wav

Pre-gap length 0:00:02.00

Peak level 100.0 %
Track quality 99.9 %
Test CRC 9D2C9A61
Copy CRC 9D2C9A61
Accurately ripped (confidence 10) [7F15BFC5]
Copy OK

Track 2

Filename F:\Kansas\[2004] Sail On- The 30th Anniversary Collection 1974-2004\02 - Portrait (He Knew).wav

Pre-gap length 0:00:02.32

Peak level 100.0 %
Track quality 100.0 %
Test CRC 169DEBCE
Copy CRC 169DEBCE
Accurately ripped (confidence 10) [5954D132]
Copy OK

Track 3

Filename F:\Kansas\[2004] Sail On- The 30th Anniversary Collection 1974-2004\03 - Dust In The Wind.wav

Pre-gap length 0:00:01.31

Peak level 99.5 %
Track quality 100.0 %
Test CRC C98C4218
Copy CRC C98C4218
Accurately ripped (confidence 11) [60556428]
Copy OK

Track 4

Filename F:\Kansas\[2004] Sail On- The 30th Anniversary Collection 1974-2004\04 - Lightning's Hand.wav

Pre-gap length 0:00:01.09

Peak level 99.8 %
Track quality 100.0 %
Test CRC 7CAB6753
Copy CRC 7CAB6753
Accurately ripped (confidence 11) [1B111D62]
Copy OK

Track 5

Filename F:\Kansas\[2004] Sail On- The 30th Anniversary Collection 1974-2004\05 - Sparks Of The Tempest.wav

Pre-gap length 0:00:00.47

Peak level 96.4 %
Track quality 100.0 %
Test CRC CA24536D
Copy CRC CA24536D
Accurately ripped (confidence 11) [E4D0165A]
Copy OK

Track 6

Filename F:\Kansas\[2004] Sail On- The 30th Anniversary Collection 1974-2004\06 - Paradox.wav

Pre-gap length 0:00:00.49

Peak level 100.0 %
Track quality 100.0 %
Test CRC 69D9DBC8
Copy CRC 69D9DBC8
Accurately ripped (confidence 11) [0094AEDE]
Copy OK

Track 7

Filename F:\Kansas\[2004] Sail On- The 30th Anniversary Collection 1974-2004\07 - People On The South Wind.wav

Pre-gap length 0:00:01.13

Peak level 89.0 %
Track quality 100.0 %
Test CRC E2009EC5
Copy CRC E2009EC5
Accurately ripped (confidence 11) [9D10CC8B]
Copy OK

Track 8

Filename F:\Kansas\[2004] Sail On- The 30th Anniversary Collection 1974-2004\08 - Hold On.wav

Pre-gap length 0:00:01.50

Peak level 99.9 %
Track quality 100.0 %
Test CRC D0A38809
Copy CRC D0A38809
Accurately ripped (confidence 11) [5FAD75AE]
Copy OK

Track 9

Filename F:\Kansas\[2004] Sail On- The 30th Anniversary Collection 1974-2004\09 - Got To Rock On.wav

Pre-gap length 0:00:02.13

Peak level 100.0 %
Track quality 100.0 %
Test CRC 9C3CE143
Copy CRC 9C3CE143
Accurately ripped (confidence 11) [5CBD4949]
Copy OK

Track 10

Filename F:\Kansas\[2004] Sail On- The 30th Anniversary Collection 1974-2004\10 - Play The Game Tonight.wav

Pre-gap length 0:00:01.19

Peak level 99.9 %
Track quality 100.0 %
Test CRC 7E1785D4
Copy CRC 7E1785D4
Accurately ripped (confidence 11) [B4702D73]
Copy OK

Track 11

Filename F:\Kansas\[2004] Sail On- The 30th Anniversary Collection 1974-2004\11 - Fight Fire With Fire.wav

Pre-gap length 0:00:01.55

Peak level 94.3 %
Track quality 100.0 %
Test CRC BFA3B27E
Copy CRC BFA3B27E
Accurately ripped (confidence 11) [6A8836D9]
Copy OK

Track 12

Filename F:\Kansas\[2004] Sail On- The 30th Anniversary Collection 1974-2004\12 - All I Wanted.wav

Pre-gap length 0:00:01.56

Peak level 100.0 %
Track quality 100.0 %
Test CRC 6B0FC966
Copy CRC 6B0FC966
Accurately ripped (confidence 11) [4E770627]
Copy OK

Track 13

Filename F:\Kansas\[2004] Sail On- The 30th Anniversary Collection 1974-2004\13 - Rainmaker.wav

Pre-gap length 0:00:01.56

Peak level 100.0 %
Track quality 100.0 %
Test CRC B6D063F7
Copy CRC B6D063F7
Accurately ripped (confidence 11) [B2D2AE73]
Copy OK

Track 14

Filename F:\Kansas\[2004] Sail On- The 30th Anniversary Collection 1974-2004\14 - Desperate Times.wav

Pre-gap length 0:00:01.55

Peak level 100.0 %
Track quality 99.9 %
Test CRC AA9CF40F
Copy CRC AA9CF40F
Accurately ripped (confidence 11) [CE611522]
Copy OK

Track 15

Filename F:\Kansas\[2004] Sail On- The 30th Anniversary Collection 1974-2004\15 - Eleanor Rigby.wav

Pre-gap length 0:00:01.56

Peak level 100.0 %
Track quality 100.0 %
Test CRC 0638B1CF
Copy CRC 0638B1CF
Accurately ripped (confidence 11) [F9ED0D1F]
Copy OK

Track 16

Filename F:\Kansas\[2004] Sail On- The 30th Anniversary Collection 1974-2004\16 - Icarus II.wav

Pre-gap length 0:00:01.55

Peak level 100.0 %
Track quality 100.0 %
Test CRC E2C6BFDA
Copy CRC E2C6BFDA
Accurately ripped (confidence 10) [08A16D34]
Copy OK


All tracks accurately ripped

No errors occurred

End of status report

AUDIOCHECKER v2.0 beta (build 457) - by Dester - opdester@freemail.hu
~~~~~~~~~~~~~~~~~~~~~~~~~~~~~~~~~~
-=== DO NOT EDIT THIS FILE! ===-

Path: …\2004 - Sail On - The 30th Anniversary Collection 1974-2004 - cd 2

1 -=- Kansas - Sail On_ The 30th Anniversary Collection 1974-2004 (Disc 02).flac -=- CDDA (100%)

215166964

[Verification date: 06.04.2011 14:06:33]
[Disc ID: 0025360b-01c23488-f8100710]
Track [ CRC ] Status
01 [7f15bfc5] (18/18) Accurately ripped as in pressing(s) #1
02 [5954d132] (18/18) Accurately ripped as in pressing(s) #1
03 [60556428] (19/19) Accurately ripped as in pressing(s) #1
04 [1b111d62] (19/19) Accurately ripped as in pressing(s) #1
05 [e4d0165a] (19/19) Accurately ripped as in pressing(s) #1
06 [0094aede] (19/19) Accurately ripped as in pressing(s) #1
07 [9d10cc8b] (19/19) Accurately ripped as in pressing(s) #1
08 [5fad75ae] (19/19) Accurately ripped as in pressing(s) #1
09 [5cbd4949] (19/19) Accurately ripped as in pressing(s) #1
10 [b4702d73] (19/19) Accurately ripped as in pressing(s) #1
11 [6a8836d9] (19/19) Accurately ripped as in pressing(s) #1
12 [4e770627] (19/19) Accurately ripped as in pressing(s) #1
13 [b2d2ae73] (19/19) Accurately ripped as in pressing(s) #1
14 [ce611522] (19/19) Accurately ripped as in pressing(s) #1
15 [f9ed0d1f] (19/19) Accurately ripped as in pressing(s) #1
16 [08a16d34] (18/18) Accurately ripped as in pressing(s) #1

Track [ CRC32 ] [W/O NULL] [ LOG ]
– [54F40E95] [1A41FF17]
01 [9D2C9A61] [08FB7F8F] CRC32
02 [169DEBCE] [C41566AD] CRC32
03 [C98C4218] [3AEDA1BA] CRC32
04 [7CAB6753] [E56D473B] CRC32
05 [CA24536D] [ED2AD839] CRC32
06 [69D9DBC8] [3B081534] CRC32
07 [E2009EC5] [5CDC92ED] CRC32
08 [D0A38809] [81A8B709] CRC32
09 [9C3CE143] [A48A2407] CRC32
10 [7E1785D4] [7C9B119B] CRC32
11 [BFA3B27E] [19AB7C98] CRC32
12 [6B0FC966] [7395AF5D] CRC32
13 [B6D063F7] [ACCDE6EF] CRC32
14 [AA9CF40F] [2B203D06] CRC32
15 [0638B1CF] [655C4D36] CRC32
16 [E2C6BFDA] [B3552E5C] CRC32

Tracklist DVD:

1.Can I Tell You ("Rock Concert" Television Show, 02/27/74)
2.Journey From Mariabronn ("Rock Concert" Television Show, 02/27/74)
3.Death Of Mother Nature Suite ("Rock Concert" Television Show, 02/27/74)
4.Icarus ("Rock Concert" Television Show, 1975)
5.The Pinnacle ("Rock Concert" Television Show, 1975)
6.Point of Know Return (Music Video)
7.Dust in the Wind (Music Video)
8.On the Other Side (Music Video)
9.People of the South Wind (Music Video)
10.Reason to Be (Music Video)
11.Away from You (Music Video)
12.Fight Fire With Fire (Music Video)
13.All I Wanted (Music Video)
14.The Preacher (Live - Device Voice Drum)
15.Miracles Out of Nowhere (Live - Device Voice Drum)
16.Carry On Wayward Son (Live - Device Voice Drum)
+hidden track: "Distant Vision" [Live 2002]

Kansas - Sail On: The 30th Anniversary Collection 1974-2004 (2009) Re-up

Kansas - Sail On: The 30th Anniversary Collection 1974-2004 (2009) Re-up

Kansas - Sail On: The 30th Anniversary Collection 1974-2004 (2009) Re-up

Kansas - Sail On: The 30th Anniversary Collection 1974-2004 (2009) Re-up

Kansas - Sail On: The 30th Anniversary Collection 1974-2004 (2009) Re-up

Kansas - Sail On: The 30th Anniversary Collection 1974-2004 (2009) Re-up

All thanks go to the original releasers …

Download Kansas - Sail On: The 30th Anniversary Collection 1974-2004 (2009):