Subcategories

Karfagen - 8 Albums (2006-2015)

Posted By: gribovar
Karfagen - 8 Albums (2006-2015)

Karfagen - 8 Albums (2006-2015)
EAC Rip | WavPack, FLAC (image+.cue+log) - 3,78 GB | MP3 CBR 320 kbps (LAME 3.93) - 1,39 GB | Covers - 323 MB
Genre: Progressive Rock | RAR 3% Rec. | Label: Unicorn Digital, Caerllysi Music

Mainly an instrumental band, they show imaginative use of keyboards and guitars with a hint of new age in places. Their influences are Camel, IQ, Saga, Focus and The Flower Kings.
Karfagen (means Karthago) - a symbol of glory and wisdom and also it is a never-ending journey into the world of the forgotten past and un-predictable future. The name Karfagen was first heard in 1997 when Antony Kalugin formed the band at school. While he was studying at the architectural university (1998) he began to record the first Karfagen album. And then they were two. Antony Kalugin and his close friend Sergei Kovalev (accordion and harmonica). In 2002 Antony completed his first solo album "the Water" Then there was another period of silence where Antony worked on commercial new age - relax projects. From 2003-2005 Antony composed and performed on more than 40 albums, that were released in Russia and Ukraine. With those projects, Antony gathered the necessary funds to record the first Karfagen album and in 2005 the band reformed and went into the studio to record Continium, the first Karfagen album which led the band to sign with Unicorn Digital.

Karfagen - 8 Albums (2006-2015)

Karfagen - Continium (2006)
EAC Rip | WavPack (image+.cue+log) - 275 MB | MP3 CBR 320 kbps (LAME 3.93) - 97 MB | Covers - 11 MB
Genre: Progressive Rock | RAR 3% Rec. | Label: Unicorn Digital (UNCR-5030)

Tracklist:
01. A Winter Tale (Part 1)
a) Out Of The Deep
b) In To The Light
02. A Winter Tale (Part 2)
a) On The Air
b) Summer Song
03. Silent Anger
04. Old Legends
05. All the Time I Think About You
06. Amused Fair
a) Arrival
b) Festive Mood
c) Wild Flower
07. Stone Talk
08. Marvelous Dance
09. Muse
10. Close to Heaven (Bonus track)

Total time: 41:29

Exact Audio Copy V1.0 beta 3 from 29. August 2011

EAC extraction logfile from 3. October 2012, 23:02

Karfagen / Continium

Used drive : TSSTcorpCDDVDW SH-222BB Adapter: 3 ID: 1

Read mode : Secure
Utilize accurate stream : Yes
Defeat audio cache : Yes
Make use of C2 pointers : No

Read offset correction : 6
Overread into Lead-In and Lead-Out : No
Fill up missing offset samples with silence : Yes
Delete leading and trailing silent blocks : No
Null samples used in CRC calculations : Yes
Used interface : Installed external ASPI interface

Used output format : User Defined Encoder
Selected bitrate : 1024 kBit/s
Quality : High
Add ID3 tag : No
Command line compressor : C:\Program Files (x86)\Exact Audio Copy\wavpack.exe
Additional command line options : -hm %source% %dest%


TOC of the extracted CD

Track | Start | Length | Start sector | End sector
––––––––––––––––––––––––––––-
1 | 0:00.00 | 4:27.11 | 0 | 20035
2 | 4:27.11 | 5:34.07 | 20036 | 45092
3 | 10:01.18 | 4:49.53 | 45093 | 66820
4 | 14:50.71 | 4:22.48 | 66821 | 86518
5 | 19:13.44 | 3:04.45 | 86519 | 100363
6 | 22:18.14 | 8:13.70 | 100364 | 137408
7 | 30:32.09 | 2:03.44 | 137409 | 146677
8 | 32:35.53 | 3:31.58 | 146678 | 162560
9 | 36:07.36 | 2:38.49 | 162561 | 174459
10 | 38:46.10 | 2:43.09 | 174460 | 186693


Range status and errors

Selected range

Filename F:\NetLab\Karfagen - Continium\Karfagen - Continium.wav

Peak level 98.8 %
Extraction speed 6.8 X
Range quality 100.0 %
Test CRC 91B8DFE0
Copy CRC 91B8DFE0
Copy OK

No errors occurred


AccurateRip summary

Track 1 accurately ripped (confidence 6) [2BDBFC49] (AR v1)
Track 2 accurately ripped (confidence 6) [8A3A110B] (AR v1)
Track 3 accurately ripped (confidence 6) [A93D3976] (AR v1)
Track 4 accurately ripped (confidence 6) [302A2AF2] (AR v1)
Track 5 accurately ripped (confidence 6) [E4C7B1AD] (AR v1)
Track 6 accurately ripped (confidence 6) [8E752A0B] (AR v1)
Track 7 accurately ripped (confidence 6) [639F7BC1] (AR v1)
Track 8 accurately ripped (confidence 6) [65443E6E] (AR v1)
Track 9 accurately ripped (confidence 6) [219B697E] (AR v1)
Track 10 accurately ripped (confidence 6) [772FE983] (AR v1)

All tracks accurately ripped

End of status report

[CUETools log; Date: 26.11.2019 22:07:57; Version: 2.1.4]
[CTDB TOCID: HRyekeZsFg4H5p4JX_93EjBuU74-] found.
Track | CTDB Status
1 | (4/4) Accurately ripped
2 | (4/4) Accurately ripped
3 | (4/4) Accurately ripped
4 | (4/4) Accurately ripped
5 | (4/4) Accurately ripped
6 | (4/4) Accurately ripped
7 | (4/4) Accurately ripped
8 | (4/4) Accurately ripped
9 | (4/4) Accurately ripped
10 | (4/4) Accurately ripped
[AccurateRip ID: 001130eb-00876801-8a09b90a] found.
Track [ CRC | V2 ] Status
01 [2bdbfc49|fb15eccf] (6+3/9) Accurately ripped
02 [8a3a110b|507bf743] (6+3/9) Accurately ripped
03 [a93d3976|18b3327d] (6+3/9) Accurately ripped
04 [302a2af2|2c341ada] (6+3/9) Accurately ripped
05 [e4c7b1ad|6f15d625] (6+3/9) Accurately ripped
06 [8e752a0b|4650681e] (6+3/9) Accurately ripped
07 [639f7bc1|664f333b] (6+3/9) Accurately ripped
08 [65443e6e|25d3ee3d] (6+3/9) Accurately ripped
09 [219b697e|98de93f4] (6+3/9) Accurately ripped
10 [772fe983|0dc955e6] (6+3/9) Accurately ripped

Track Peak [ CRC32 ] [W/O NULL] [ LOG ]
– 98,8 [91B8DFE0] [3D37D10C] CRC32
01 98,8 [1A2F2A03] [2FEF6CC3]
02 98,8 [5DB15A46] [0309EF00]
03 98,8 [62AE9314] [C34A3859]
04 98,8 [365A30D3] [6323D96F]
05 98,8 [B3A2B6C6] [CA026DD4]
06 98,8 [F7080C09] [895DF4FE]
07 98,8 [FC09ABBC] [061C5878]
08 98,8 [0521F735] [699B54BE]
09 55,7 [7A8C393F] [C4286DE2]
10 95,9 [4C0AD9E1] [06974A60]

Karfagen - 8 Albums (2006-2015)

Karfagen - The Space Between Us (2007)
EAC Rip | FLAC (image+.cue+log) - 396 MB | MP3 CBR 320 kbps (LAME 3.93) - 154 MB | Covers - 35 MB
Genre: Progressive Rock | RAR 3% Rec. | Label: Unicorn Digital (UNCR-5041)

Tracklist:
01. Entering the Gates
02. The Great Circus
03. Temple of Light
04. The Other Side
05. Sky of Couple Colors
06. Mass and Illusions
07. The Dream Master
08. Labyrinth
09. Let Go
10. Wonder Valleys
11. Kingsisher and Dragonflies
12. Retrofall
13. Mind Games
14. The Space Between Us
15. When the Night Falls
16. Big Outro

Total time: 01:05:24

Exact Audio Copy V1.0 beta 3 from 29. August 2011

Отчёт EAC об извлечении, выполненном 15. августа 2013, 21:08

Karfagen / The Space Between Us

Дисковод: ASUS BW-12D1S-U Adapter: 1 ID: 1

Режим чтения : Достоверность
Использование точного потока : Да
Отключение кэша аудио : Да
Использование указателей C2 : Нет

Коррекция смещения при чтении : 667
Способность читать области Lead-in и Lead-out : Да
Заполнение пропущенных сэмплов тишиной : Да
Удаление блоков с тишиной в начале и конце : Нет
При вычислениях CRC использовались нулевые сэмплы : Да
Интерфейс : Встроенный Win32-интерфейс для Win NT/2000

Выходной формат : Пользовательский кодировщик
Выбранный битрейт : 1024 kBit/s
Качество : Высокий
Добавление ID3-тега : Нет
Утилита сжатия : C:\Program Files (x86)\Exact Audio Copy\Flac\flac.exe
Дополнительные параметры : -V -8 -T "Date=%year%" -T "Genre=%genre%" %source%


TOC извлечённого CD

Трек | Старт | Длительность | Начальный сектор | Конечный сектор
––––––––––––––––––––––––––––––––––-
1 | 0:00.00 | 1:54.07 | 0 | 8556
2 | 1:54.07 | 5:30.74 | 8557 | 33380
3 | 7:25.06 | 4:57.27 | 33381 | 55682
4 | 12:22.33 | 5:09.70 | 55683 | 78927
5 | 17:32.28 | 4:08.29 | 78928 | 97556
6 | 21:40.57 | 6:40.47 | 97557 | 127603
7 | 28:21.29 | 6:40.49 | 127604 | 157652
8 | 35:02.03 | 4:44.67 | 157653 | 179019
9 | 39:46.70 | 3:33.48 | 179020 | 195042
10 | 43:20.43 | 4:21.12 | 195043 | 214629
11 | 47:41.55 | 1:48.30 | 214630 | 222759
12 | 49:30.10 | 5:21.00 | 222760 | 246834
13 | 54:51.10 | 1:21.21 | 246835 | 252930
14 | 56:12.31 | 4:17.04 | 252931 | 272209
15 | 60:29.35 | 2:13.23 | 272210 | 282207
16 | 62:42.58 | 2:41.13 | 282208 | 294295


Характеристики диапазона извлечения и сообщения об ошибках

Выбранный диапазон

Имя файла E:\cd-RUS\Kalugin Antony (Discography)\Karfagen (2007) - The Space Between Us\Karfagen - The Space Between Us.wav

Пиковый уровень 97.8 %
Скорость извлечения 8.1 X
Качество диапазона 100.0 %
CRC теста E4216EBE
CRC копии E4216EBE
Копирование… OK

Ошибок не произошло

Конец отчёта

–– CUETools DB Plugin V2.1.3

[CTDB TOCID: d3bini4okpUtrDpYW1kRjraa9oY-] found, Submit result: d3bini4okpUtrDpYW1kRjraa9oY- has been confirmed
[39241d9e] (6/6) Accurately ripped

[CUETools log; Date: 26.11.2019 22:08:39; Version: 2.1.4]
[CTDB TOCID: d3bini4okpUtrDpYW1kRjraa9oY-] found.
Track | CTDB Status
1 | (5/5) Accurately ripped
2 | (5/5) Accurately ripped
3 | (5/5) Accurately ripped
4 | (5/5) Accurately ripped
5 | (5/5) Accurately ripped
6 | (5/5) Accurately ripped
7 | (5/5) Accurately ripped
8 | (5/5) Accurately ripped
9 | (5/5) Accurately ripped
10 | (5/5) Accurately ripped
11 | (5/5) Accurately ripped
12 | (5/5) Accurately ripped
13 | (5/5) Accurately ripped
14 | (5/5) Accurately ripped
15 | (5/5) Accurately ripped
16 | (5/5) Accurately ripped
[AccurateRip ID: 00297e40-01eeb66b-d30f5310] found.
Track [ CRC | V2 ] Status
01 [47b26977|2b017c2b] (6+2/8) Accurately ripped
02 [681e5183|6f94b1ee] (6+2/8) Accurately ripped
03 [c7e187cd|62b3d4a7] (6+2/8) Accurately ripped
04 [8b558be1|b59286c1] (6+2/8) Accurately ripped
05 [b8cd47fb|95470434] (6+2/8) Accurately ripped
06 [541d4ee8|82c06e1f] (6+2/8) Accurately ripped
07 [72465301|bb8a22b5] (6+2/8) Accurately ripped
08 [273e5096|c1e3abe6] (6+2/8) Accurately ripped
09 [dd0fadf3|3b01418c] (6+2/8) Accurately ripped
10 [1504ff03|4c07be70] (6+2/8) Accurately ripped
11 [c77bc7a7|5005eabe] (6+2/8) Accurately ripped
12 [2ec2a9da|689f9a78] (6+2/8) Accurately ripped
13 [cb847bb3|c9955a6c] (6+2/8) Accurately ripped
14 [a43d31e3|0616b3de] (6+2/8) Accurately ripped
15 [318ad966|f11bf47d] (6+2/8) Accurately ripped
16 [14af16fe|d80d22bc] (6+2/8) Accurately ripped

Track Peak [ CRC32 ] [W/O NULL] [ LOG ]
– 97,8 [E4216EBE] [EDDD6CC8] CRC32
01 97,1 [2D4EF389] [C1914BA4]
02 97,3 [D14102F0] [0CFB0670]
03 97,3 [6CAF3C35] [6317D198]
04 97,6 [0B1DC0CD] [847EC289]
05 97,4 [7EBB8C4B] [C7FD281B]
06 97,4 [60B8088C] [8CC1EF57]
07 97,1 [DEBD512E] [7347ABC9]
08 97,4 [AD338EC4] [D068BAE3]
09 97,3 [4A6A9A9A] [50665C2A]
10 97,7 [A01AFDCF] [06E735A6]
11 97,4 [768145B8] [BF6BA710]
12 97,8 [4DA4C310] [624B7EB5]
13 96,8 [02DE45A9] [B56A60A7]
14 97,5 [4C23AAD8] [1271C55B]
15 97,3 [C51C04A9] [D26D80FE]
16 97,5 [7466A39F] [5CBEE781]

Karfagen - 8 Albums (2006-2015)

Karfagen - The Key to Perception: Early Days 1997-2007 (2009)
EAC Rip | WavPack (image+.cue+log) - 989 MB | MP3 CBR 320 kbps (LAME 3.93) - 377 MB | Covers - 21 MB
Genre: Progressive Rock | RAR 3% Rec. | Label: Caerllysi Music (CM09004)

CD 1 Tracklist:
01. A Winter Tale - Part 1
02. A Winter Tale - Part 2
03. A Winter Tale - Part 3
04. Silent Anger
05. Old Legends
06. All That I Think About You
07. Amused Fair
08. Stone Talk
09. Marvelous Dance
10. Muse
11. Close to Heaven

Bonus:
12. A Winter Tale (demo)
13. E2 - E4 (previously unreleased)
14. Silent Anger (demo)
15. Old Legends (demo)
16. Silent Anger part 2 (previously unreleased demo)
17. Amused Fair (demo)
18. Marvelous Dance (demo)
19. For the Friend (previously unreleased demo)
20. The Key to Perception (previously unreleased)

Total time: 01:19:57

CD 2 Tracklist:
01. Entering the Gates
02. The Great Circus
03. Temple of Light
04. The Other Side
05. Sky of Couple Colors
06. Masks and Illusions
07. The Dream Master
08. Labyrinth
09. Let Go
10. Wonder Valleys
11. Kingfisher and Dragonflies
12. Retrofall
13. Mind Games
14. The Space Between Us
15. When the Night Falls
16. Big Outro

Bonus:
17. Labyrinth (extended demo)
18. Night Flight Jam (previously unreleased)
19. Sun Valleys (previously unreleased demo)

Total time: 01:19:57

Exact Audio Copy V1.0 beta 3 from 29. August 2011

EAC extraction logfile from 4. October 2012, 7:35

Karfagen / The Key to Perception CD 1

Used drive : TSSTcorpCDDVDW SH-222BB Adapter: 3 ID: 1

Read mode : Secure
Utilize accurate stream : Yes
Defeat audio cache : Yes
Make use of C2 pointers : No

Read offset correction : 6
Overread into Lead-In and Lead-Out : No
Fill up missing offset samples with silence : Yes
Delete leading and trailing silent blocks : No
Null samples used in CRC calculations : Yes
Used interface : Installed external ASPI interface

Used output format : User Defined Encoder
Selected bitrate : 1024 kBit/s
Quality : High
Add ID3 tag : No
Command line compressor : C:\Program Files (x86)\Exact Audio Copy\wavpack.exe
Additional command line options : -hm %source% %dest%


TOC of the extracted CD

Track | Start | Length | Start sector | End sector
––––––––––––––––––––––––––––-
1 | 0:00.00 | 4:27.47 | 0 | 20071
2 | 4:27.47 | 3:48.30 | 20072 | 37201
3 | 8:16.02 | 1:45.52 | 37202 | 45128
4 | 10:01.54 | 4:49.66 | 45129 | 66869
5 | 14:51.45 | 4:22.38 | 66870 | 86557
6 | 19:14.08 | 3:04.52 | 86558 | 100409
7 | 22:18.60 | 8:13.64 | 100410 | 137448
8 | 30:32.49 | 2:03.45 | 137449 | 146718
9 | 32:36.19 | 3:31.53 | 146719 | 162596
10 | 36:07.72 | 2:38.46 | 162597 | 174492
11 | 38:46.43 | 2:44.36 | 174493 | 186828
12 | 41:31.04 | 8:36.71 | 186829 | 225599
13 | 50:08.00 | 0:46.16 | 225600 | 229065
14 | 50:54.16 | 4:43.56 | 229066 | 250346
15 | 55:37.72 | 4:10.21 | 250347 | 269117
16 | 59:48.18 | 1:27.23 | 269118 | 275665
17 | 61:15.41 | 8:21.59 | 275666 | 313299
18 | 69:37.25 | 3:26.68 | 313300 | 328817
19 | 73:04.18 | 3:42.62 | 328818 | 345529
20 | 76:47.05 | 3:09.73 | 345530 | 359777


Range status and errors

Selected range

Filename F:\NetLab\Karfagen - The Key to Perception CD 1\Karfagen - The Key to Perception CD 1.wav

Peak level 100.0 %
Extraction speed 8.5 X
Range quality 99.9 %
Test CRC ECB68FED
Copy CRC ECB68FED
Copy OK

No errors occurred


AccurateRip summary

Track 1 cannot be verified as accurate (confidence 1) [3AA72466], AccurateRip returned [5CF49DEE] (AR v2)
Track 2 cannot be verified as accurate (confidence 1) [A4004C47], AccurateRip returned [37A4EA58] (AR v2)
Track 3 cannot be verified as accurate (confidence 1) [B70BA821], AccurateRip returned [11E7584E] (AR v2)
Track 4 cannot be verified as accurate (confidence 1) [A5893CB7], AccurateRip returned [D6EB2534] (AR v2)
Track 5 cannot be verified as accurate (confidence 1) [C24C354F], AccurateRip returned [E60375E4] (AR v2)
Track 6 cannot be verified as accurate (confidence 1) [6BBB9076], AccurateRip returned [15D55445] (AR v2)
Track 7 cannot be verified as accurate (confidence 1) [7B022B85], AccurateRip returned [FFB1F370] (AR v2)
Track 8 cannot be verified as accurate (confidence 1) [3400651E], AccurateRip returned [348DD181] (AR v2)
Track 9 cannot be verified as accurate (confidence 1) [134ABDB1], AccurateRip returned [03355725] (AR v2)
Track 10 cannot be verified as accurate (confidence 1) [F04A28D7], AccurateRip returned [642DA069] (AR v2)
Track 11 cannot be verified as accurate (confidence 1) [19BB32FE], AccurateRip returned [E2FDD8F6] (AR v2)
Track 12 cannot be verified as accurate (confidence 1) [4027178B], AccurateRip returned [FB01B882] (AR v2)
Track 13 cannot be verified as accurate (confidence 1) [DE3B49EE], AccurateRip returned [4038E4D3] (AR v2)
Track 14 cannot be verified as accurate (confidence 1) [9F46C4AB], AccurateRip returned [77968983] (AR v2)
Track 15 cannot be verified as accurate (confidence 1) [8E2FE9D0], AccurateRip returned [0A7B8341] (AR v2)
Track 16 cannot be verified as accurate (confidence 1) [5EBCC759], AccurateRip returned [4383A216] (AR v2)
Track 17 cannot be verified as accurate (confidence 1) [14CEE1D4], AccurateRip returned [C634DA88] (AR v2)
Track 18 cannot be verified as accurate (confidence 1) [BBFA8A7B], AccurateRip returned [A05319FB] (AR v2)
Track 19 cannot be verified as accurate (confidence 1) [DD037299], AccurateRip returned [76E0A3DA] (AR v2)
Track 20 cannot be verified as accurate (confidence 1) [6C0ABE86], AccurateRip returned [CC719C05] (AR v2)

No tracks could be verified as accurate
You may have a different pressing from the one(s) in the database

End of status report

[CUETools log; Date: 26.11.2019 22:12:50; Version: 2.1.4]
[CTDB TOCID: jh37.FLTs6ouvMwarXuSiZV9sEY-] found.
Track | CTDB Status
1 | (7/7) Accurately ripped
2 | (7/7) Accurately ripped
3 | (7/7) Accurately ripped
4 | (7/7) Accurately ripped
5 | (7/7) Accurately ripped
6 | (7/7) Accurately ripped
7 | (7/7) Accurately ripped
8 | (7/7) Accurately ripped
9 | (7/7) Accurately ripped
10 | (7/7) Accurately ripped
11 | (7/7) Accurately ripped
12 | (7/7) Accurately ripped
13 | (7/7) Accurately ripped
14 | (7/7) Accurately ripped
15 | (7/7) Accurately ripped
16 | (7/7) Accurately ripped
17 | (7/7) Accurately ripped
18 | (7/7) Accurately ripped
19 | (7/7) Accurately ripped
20 | (6/7) Accurately ripped
[AccurateRip ID: 0039658f-034c5d42-3e12bd14] found.
Track [ CRC | V2 ] Status
01 [bf49cea5|3aa72466] (0+6/6) Accurately ripped
02 [e73713d7|a4004c47] (0+6/6) Accurately ripped
03 [46b68923|b70ba821] (0+6/6) Accurately ripped
04 [0bd8362d|a5893cb7] (0+6/6) Accurately ripped
05 [9c777f4a|c24c354f] (0+6/6) Accurately ripped
06 [302aabd2|6bbb9076] (0+6/6) Accurately ripped
07 [980a2a7e|7b022b85] (0+6/6) Accurately ripped
08 [1ab32dfe|3400651e] (0+6/6) Accurately ripped
09 [bb34fe25|134abdb1] (0+6/6) Accurately ripped
10 [356f4699|f04a28d7] (0+6/6) Accurately ripped
11 [ca72e826|19bb32fe] (0+6/6) Accurately ripped
12 [40bf2127|4027178b] (0+6/6) Accurately ripped
13 [847bbd2f|de3b49ee] (0+6/6) Accurately ripped
14 [49f0c823|9f46c4ab] (0+6/6) Accurately ripped
15 [bf6c80ab|8e2fe9d0] (0+6/6) Accurately ripped
16 [005be3c6|5ebcc759] (0+6/6) Accurately ripped
17 [952944b6|14cee1d4] (0+6/6) Accurately ripped
18 [2610540c|bbfa8a7b] (0+6/6) Accurately ripped
19 [a128b824|dd037299] (0+6/6) Accurately ripped
20 [864df32a|6c0abe86] (0+6/6) Accurately ripped

Track Peak [ CRC32 ] [W/O NULL] [ LOG ]
– 100,0 [ECB68FED] [90458517] CRC32
01 98,8 [DD937B89] [D9A6FAD0]
02 98,8 [FE890A86] [A4D3DDAD]
03 98,8 [704F947F] [0A0622DB]
04 98,8 [A0B15924] [46ADDA8A]
05 98,8 [C0882A10] [6531F756]
06 98,8 [EBF15BA5] [F1763CA4]
07 98,8 [C937C606] [37352F9D]
08 98,8 [C696B3C1] [9849612A]
09 98,8 [49E6823A] [04F34796]
10 55,7 [AB01AF10] [58FE053F]
11 90,1 [967D6095] [615B1522]
12 99,8 [6AB53BA9] [5E6771BE]
13 62,2 [995F6F63] [5ACDD3C9]
14 99,9 [EFE2DA3E] [9523EDEE]
15 100,0 [1C2CE76A] [0598C71B]
16 100,0 [9A5E9622] [839E0710]
17 100,0 [57164D6F] [CC72E3B8]
18 99,1 [19DE90D9] [18540146]
19 99,9 [8B3FEC11] [4685B149]
20 97,2 [507001B0] [695F038A]

Exact Audio Copy V1.0 beta 3 from 29. August 2011

EAC extraction logfile from 4. October 2012, 11:56

Karfagen / The Key to Perception CD 2

Used drive : TSSTcorpCDDVDW SH-222BB Adapter: 3 ID: 1

Read mode : Secure
Utilize accurate stream : Yes
Defeat audio cache : Yes
Make use of C2 pointers : No

Read offset correction : 6
Overread into Lead-In and Lead-Out : No
Fill up missing offset samples with silence : Yes
Delete leading and trailing silent blocks : No
Null samples used in CRC calculations : Yes
Used interface : Installed external ASPI interface

Used output format : User Defined Encoder
Selected bitrate : 1024 kBit/s
Quality : High
Add ID3 tag : No
Command line compressor : C:\Program Files (x86)\Exact Audio Copy\wavpack.exe
Additional command line options : -hm %source% %dest%


TOC of the extracted CD

Track | Start | Length | Start sector | End sector
––––––––––––––––––––––––––––-
1 | 0:00.00 | 1:52.05 | 0 | 8404
2 | 1:52.05 | 5:29.29 | 8405 | 33108
3 | 7:21.34 | 4:56.16 | 33109 | 55324
4 | 12:17.50 | 5:09.41 | 55325 | 78540
5 | 17:27.16 | 4:08.14 | 78541 | 97154
6 | 21:35.30 | 6:40.45 | 97155 | 127199
7 | 28:16.00 | 6:38.40 | 127200 | 157089
8 | 34:54.40 | 4:43.31 | 157090 | 178345
9 | 39:37.71 | 3:32.10 | 178346 | 194255
10 | 43:10.06 | 4:18.38 | 194256 | 213643
11 | 47:28.44 | 1:47.67 | 213644 | 221735
12 | 49:16.36 | 5:16.23 | 221736 | 245458
13 | 54:32.59 | 1:20.73 | 245459 | 251531
14 | 55:53.57 | 4:17.00 | 251532 | 270806
15 | 60:10.57 | 2:13.08 | 270807 | 280789
16 | 62:23.65 | 2:39.34 | 280790 | 292748
17 | 65:03.24 | 6:28.48 | 292749 | 321896
18 | 71:31.72 | 4:24.68 | 321897 | 341764
19 | 75:56.65 | 4:00.13 | 341765 | 359777


Range status and errors

Selected range

Filename F:\NetLab\Karfagen - The Key to Perception CD 2\Karfagen - The Key to Perception CD 2.wav

Peak level 100.0 %
Extraction speed 5.2 X
Range quality 99.9 %
Test CRC 3D5390A8
Copy CRC 3D5390A8
Copy OK

No errors occurred


AccurateRip summary

Track 1 cannot be verified as accurate (confidence 1) [1D38527B], AccurateRip returned [3B993710] (AR v2)
Track 2 cannot be verified as accurate (confidence 1) [171E7217], AccurateRip returned [88D3A841] (AR v2)
Track 3 cannot be verified as accurate (confidence 1) [AF418C0E], AccurateRip returned [1693355A] (AR v2)
Track 4 cannot be verified as accurate (confidence 1) [DF78C072], AccurateRip returned [DCE0BCF6] (AR v2)
Track 5 cannot be verified as accurate (confidence 1) [E8F7333F], AccurateRip returned [72AC96CF] (AR v2)
Track 6 cannot be verified as accurate (confidence 1) [51190213], AccurateRip returned [E521E060] (AR v2)
Track 7 cannot be verified as accurate (confidence 1) [55A4ACDA], AccurateRip returned [D44FD8CB] (AR v2)
Track 8 cannot be verified as accurate (confidence 1) [C2A5DF19], AccurateRip returned [3D1A71D1] (AR v2)
Track 9 cannot be verified as accurate (confidence 1) [4AFC87C4], AccurateRip returned [F7EB46FD] (AR v2)
Track 10 cannot be verified as accurate (confidence 1) [B71D391B], AccurateRip returned [BAF5BB57] (AR v2)
Track 11 cannot be verified as accurate (confidence 1) [EE395829], AccurateRip returned [E387AE22] (AR v2)
Track 12 cannot be verified as accurate (confidence 1) [EF7CE544], AccurateRip returned [DDF4AA2A] (AR v2)
Track 13 cannot be verified as accurate (confidence 1) [499A0C20], AccurateRip returned [203D9EF3] (AR v2)
Track 14 cannot be verified as accurate (confidence 1) [93E00EFF], AccurateRip returned [7BFFDE09] (AR v2)
Track 15 cannot be verified as accurate (confidence 1) [00A5BE04], AccurateRip returned [51AC346E] (AR v2)
Track 16 cannot be verified as accurate (confidence 1) [97C54996], AccurateRip returned [0928837C] (AR v2)
Track 17 cannot be verified as accurate (confidence 1) [5BF8AAC6], AccurateRip returned [1045CC84] (AR v2)
Track 18 cannot be verified as accurate (confidence 1) [178F0764], AccurateRip returned [AAEE7F8B] (AR v2)
Track 19 cannot be verified as accurate (confidence 1) [7BC72B94], AccurateRip returned [42D46E6E] (AR v2)

No tracks could be verified as accurate
You may have a different pressing from the one(s) in the database

End of status report

[CUETools log; Date: 26.11.2019 22:13:40; Version: 2.1.4]
[CTDB TOCID: _E8BhMb3g92D4_4nL8th5.WZ6MY-] found.
Track | CTDB Status
1 | (6/6) Accurately ripped
2 | (6/6) Accurately ripped
3 | (6/6) Accurately ripped
4 | (6/6) Accurately ripped
5 | (6/6) Accurately ripped
6 | (6/6) Accurately ripped
7 | (6/6) Accurately ripped
8 | (6/6) Accurately ripped
9 | (6/6) Accurately ripped
10 | (6/6) Accurately ripped
11 | (6/6) Accurately ripped
12 | (6/6) Accurately ripped
13 | (6/6) Accurately ripped
14 | (6/6) Accurately ripped
15 | (6/6) Accurately ripped
16 | (6/6) Accurately ripped
17 | (6/6) Accurately ripped
18 | (6/6) Accurately ripped
19 | (6/6) Accurately ripped
[AccurateRip ID: 0038e8b0-0315947d-3712bd13] found.
Track [ CRC | V2 ] Status
01 [5b0570dc|1d38527b] (0+6/6) Accurately ripped
02 [42eea640|171e7217] (0+6/6) Accurately ripped
03 [8e712d0b|af418c0e] (0+6/6) Accurately ripped
04 [25795ea2|df78c072] (0+6/6) Accurately ripped
05 [be60dbef|e8f7333f] (0+6/6) Accurately ripped
06 [669a7601|51190213] (0+6/6) Accurately ripped
07 [f67d3d2e|55a4acda] (0+5/5) Accurately ripped
08 [111ad634|c2a5df19] (0+6/6) Accurately ripped
09 [15d5c6a6|4afc87c4] (0+6/6) Accurately ripped
10 [4a87357b|b71d391b] (0+6/6) Accurately ripped
11 [ab69884d|ee395829] (0+6/6) Accurately ripped
12 [0caaaca0|ef7ce544] (0+6/6) Accurately ripped
13 [eb274b76|499a0c20] (0+6/6) Accurately ripped
14 [3b3b375f|93e00eff] (0+6/6) Accurately ripped
15 [a5a613f7|00a5be04] (0+6/6) Accurately ripped
16 [85af6cbf|97c54996] (0+6/6) Accurately ripped
17 [954b22bc|5bf8aac6] (0+6/6) Accurately ripped
18 [dde2624b|178f0764] (0+6/6) Accurately ripped
19 [e916ba7f|7bc72b94] (0+5/5) Accurately ripped

Track Peak [ CRC32 ] [W/O NULL] [ LOG ]
– 100,0 [3D5390A8] [84750470] CRC32
01 97,1 [4A7FFA0C] [5440855B]
02 97,3 [3354ABB3] [34B464FC]
03 97,3 [723A41F5] [DA4FC3C1]
04 97,6 [2AA09AEA] [75666CF7]
05 97,4 [00591EBC] [D5021B30]
06 97,4 [6C543E19] [62BF3481]
07 97,1 [FDC4E8B6] [456BD831]
08 97,4 [68854272] [8E7DD78E]
09 97,3 [B6AA2CAB] [048626BB]
10 97,7 [EE63ACB9] [6D696CC0]
11 97,4 [C2EC2966] [CA276498]
12 97,7 [00D2B572] [1A604D57]
13 96,8 [CE2BAE10] [8FBDE1F6]
14 97,5 [925794D3] [CD9CC301]
15 97,3 [6553E3E0] [5C0F3F83]
16 97,5 [83D21DCD] [093550D0]
17 100,0 [602295D6] [1797749D]
18 99,9 [96D0EE96] [64884DE4]
19 98,5 [28786B7D] [ECE5FCC7]

Karfagen - 8 Albums (2006-2015)

Karfagen - Solitary Sandpiper Journey (2010)
EAC Rip | FLAC (image+.cue+log) - 494 MB | MP3 CBR 320 kbps (LAME 3.93) - 177 MB | Covers - 17 MB
Genre: Progressive Rock | RAR 3% Rec. | Label: Caerllysi Music (CM10005)

Tracklist:
01. Spirit of Revelation
02. Magic Moment
03. Silent Anger (part 2)
04. Solitary Sandpiper King
05. Searching for Love
06. Carpathians
07. Ode to a New Life
08. Kingfisher and Dragonflies (part 2)
09. Mystery
a) Solid Ground
b) Rising Sun
c) Destruction
d) Redemption
e) Spirit of Revelation (reprise)

Total time: 01:15:05

Exact Audio Copy V1.0 beta 3 from 29. August 2011

Отчёт EAC об извлечении, выполненном 1. августа 2013, 22:45

Karfagen / Solitary Sandpiper Journey

Дисковод: ASUS BW-12D1S-U Adapter: 1 ID: 1

Режим чтения : Достоверность
Использование точного потока : Да
Отключение кэша аудио : Да
Использование указателей C2 : Нет

Коррекция смещения при чтении : 667
Способность читать области Lead-in и Lead-out : Да
Заполнение пропущенных сэмплов тишиной : Да
Удаление блоков с тишиной в начале и конце : Нет
При вычислениях CRC использовались нулевые сэмплы : Да
Интерфейс : Встроенный Win32-интерфейс для Win NT/2000

Выходной формат : Пользовательский кодировщик
Выбранный битрейт : 1024 kBit/s
Качество : Высокий
Добавление ID3-тега : Нет
Утилита сжатия : C:\Program Files (x86)\Exact Audio Copy\Flac\flac.exe
Дополнительные параметры : -V -8 -T "Date=%year%" -T "Genre=%genre%" %source%


TOC извлечённого CD

Трек | Старт | Длительность | Начальный сектор | Конечный сектор
––––––––––––––––––––––––––––––––––-
1 | 0:00.00 | 7:18.14 | 0 | 32863
2 | 7:18.14 | 4:22.46 | 32864 | 52559
3 | 11:40.60 | 6:15.53 | 52560 | 80737
4 | 17:56.38 | 5:03.40 | 80738 | 103502
5 | 23:00.03 | 8:32.04 | 103503 | 141906
6 | 31:32.07 | 13:49.39 | 141907 | 204120
7 | 45:21.46 | 5:27.39 | 204121 | 228684
8 | 50:49.10 | 2:15.06 | 228685 | 238815
9 | 53:04.16 | 22:00.63 | 238816 | 337878


Характеристики диапазона извлечения и сообщения об ошибках

Выбранный диапазон

Имя файла E:\cd\Kalugin Antony\Karfagen (2010) - Solitary Sandpiper Journey\Karfagen - Solitary Sandpiper Journey.wav

Пиковый уровень 98.8 %
Скорость извлечения 7.9 X
Качество диапазона 100.0 %
CRC теста 40DDBAB4
CRC копии 40DDBAB4
Копирование… OK

Ошибок не произошло

Конец отчёта

–– CUETools DB Plugin V2.1.3

[CTDB TOCID: PRvKprdn1BqbiKyVAlu3hb4c79M-] found, Submit result: PRvKprdn1BqbiKyVAlu3hb4c79M- has been confirmed
[0eb45bbf] (4/4) Accurately ripped

[CUETools log; Date: 26.11.2019 22:20:08; Version: 2.1.4]
[CTDB TOCID: PRvKprdn1BqbiKyVAlu3hb4c79M-] found.
Track | CTDB Status
1 | (13/13) Accurately ripped
2 | (13/13) Accurately ripped
3 | (13/13) Accurately ripped
4 | (13/13) Accurately ripped
5 | (13/13) Accurately ripped
6 | (13/13) Accurately ripped
7 | (13/13) Accurately ripped
8 | (13/13) Accurately ripped
9 | (13/13) Accurately ripped
[AccurateRip ID: 0015af11-00a34bd3-70119909] found.
Track [ CRC | V2 ] Status
01 [a762e333|d1613f52] (4+3/9) Accurately ripped
02 [b9d992b4|6e5ecfa7] (4+3/9) Accurately ripped
03 [3b12e015|c11429c6] (4+3/9) Accurately ripped
04 [e8599e8c|3464a62c] (4+3/9) Accurately ripped
05 [16cf7b70|b81446e9] (4+3/9) Accurately ripped
06 [08031151|6878aa60] (4+3/9) Accurately ripped
07 [5763c99c|473a2168] (4+3/9) Accurately ripped
08 [2dfd2d0c|fe874d84] (4+3/9) Accurately ripped
09 [e58cfe96|4fb43790] (4+3/9) Accurately ripped
Offsetted by -69:
01 [c1c90e7a] (0/9) No match (V2 was not tested)
02 [321afbdb] (0/9) No match (V2 was not tested)
03 [9098e3f0] (0/9) No match (V2 was not tested)
04 [9beaac40] (0/9) No match (V2 was not tested)
05 [84542a47] (0/9) No match (V2 was not tested)
06 [a07eec75] (0/9) No match (V2 was not tested)
07 [b41e04b1] (0/9) No match (V2 was not tested)
08 [0e12c722] (0/9) No match (V2 was not tested)
09 [087e68c0] (0/9) No match (V2 was not tested)

Track Peak [ CRC32 ] [W/O NULL] [ LOG ]
– 98,8 [40DDBAB4] [56EEFE81] CRC32
01 98,8 [FF2C1854] [198E834C]
02 95,1 [87D74CAF] [3AE289F6]
03 98,8 [07DADE9E] [F7FA1BD9]
04 98,8 [8B381C22] [3A9CEB4E]
05 97,2 [2207C27C] [CC703D7B]
06 97,7 [88C0FF1A] [37A09B17]
07 97,7 [EF9E4C17] [7A7AE6F9]
08 93,8 [93BCCA24] [E6A0B884]
09 98,8 [042D1D8A] [FE575BB4]

Karfagen - 8 Albums (2006-2015)

Karfagen - Lost Symphony (2011)
EAC Rip | WavPack (image+.cue+log) - 408 MB | MP3 CBR 320 kbps (LAME 3.93) - 151 MB | Covers - 15 MB
Genre: Progressive Rock | RAR 3% Rec. | Label: Caerllysi Music (CM11008)

Tracklist:
01. Entering the Space Gates
02. Salvatore & his Leather Jackets
03. Orgaria (scene 1)
04. The Cosmic Frog & the Beast
05. The China Wizard
06. Sylph
07. Daydream
08. Orgaria (scene 2)
09. Journey Through the Looking Glass
10. Symphony of Sound
11. Afterwords

Total time: 01:04:02

Exact Audio Copy V1.0 beta 3 from 29. August 2011

EAC extraction logfile from 4. October 2012, 20:06

Karfagen / Lost Symphony

Used drive : TSSTcorpCDDVDW SH-222BB Adapter: 3 ID: 1

Read mode : Secure
Utilize accurate stream : Yes
Defeat audio cache : Yes
Make use of C2 pointers : No

Read offset correction : 6
Overread into Lead-In and Lead-Out : No
Fill up missing offset samples with silence : Yes
Delete leading and trailing silent blocks : No
Null samples used in CRC calculations : Yes
Used interface : Installed external ASPI interface

Used output format : User Defined Encoder
Selected bitrate : 1024 kBit/s
Quality : High
Add ID3 tag : No
Command line compressor : C:\Program Files (x86)\Exact Audio Copy\wavpack.exe
Additional command line options : -hm %source% %dest%


TOC of the extracted CD

Track | Start | Length | Start sector | End sector
––––––––––––––––––––––––––––-
1 | 0:00.00 | 1:27.24 | 0 | 6548
2 | 1:27.24 | 2:25.39 | 6549 | 17462
3 | 3:52.63 | 1:07.09 | 17463 | 22496
4 | 4:59.72 | 6:47.20 | 22497 | 53041
5 | 11:47.17 | 3:42.61 | 53042 | 69752
6 | 15:30.03 | 4:29.19 | 69753 | 89946
7 | 19:59.22 | 2:59.26 | 89947 | 103397
8 | 22:58.48 | 0:55.39 | 103398 | 107561
9 | 23:54.12 | 18:20.25 | 107562 | 190086
10 | 42:14.37 | 19:24.17 | 190087 | 277403
11 | 61:38.54 | 2:23.38 | 277404 | 288166


Range status and errors

Selected range

Filename F:\NetLab\Karfagen - Lost Symphony\Karfagen - Lost Symphony.wav

Peak level 89.4 %
Extraction speed 7.3 X
Range quality 99.9 %
Test CRC 123E00BF
Copy CRC 123E00BF
Copy OK

No errors occurred


AccurateRip summary

Track 1 accurately ripped (confidence 3) [025FE317] (AR v2)
Track 2 accurately ripped (confidence 3) [24C21790] (AR v2)
Track 3 accurately ripped (confidence 3) [6D96D671] (AR v2)
Track 4 accurately ripped (confidence 3) [7F1196CA] (AR v2)
Track 5 accurately ripped (confidence 3) [D85FDA58] (AR v2)
Track 6 accurately ripped (confidence 3) [A8257E68] (AR v2)
Track 7 accurately ripped (confidence 3) [E81835EE] (AR v2)
Track 8 accurately ripped (confidence 3) [56EED99D] (AR v2)
Track 9 accurately ripped (confidence 3) [F8D00602] (AR v2)
Track 10 accurately ripped (confidence 3) [2A0A7DED] (AR v2)
Track 11 accurately ripped (confidence 3) [4B7A44CB] (AR v2)

All tracks accurately ripped

End of status report

[CUETools log; Date: 26.11.2019 22:21:16; Version: 2.1.4]
[CTDB TOCID: cjVWkBB6Gz7ud6L3Ke0Yo8h6HQQ-] found.
Track | CTDB Status
1 | (12/12) Accurately ripped
2 | (12/12) Accurately ripped
3 | (12/12) Accurately ripped
4 | (12/12) Accurately ripped
5 | (12/12) Accurately ripped
6 | (12/12) Accurately ripped
7 | (12/12) Accurately ripped
8 | (12/12) Accurately ripped
9 | (12/12) Accurately ripped
10 | (12/12) Accurately ripped
11 | (10/12) Accurately ripped
[AccurateRip ID: 0012b48d-00b22319-760f020b] found.
Track [ CRC | V2 ] Status
01 [69f59064|025fe317] (00+13/13) Accurately ripped
02 [2a776d96|24c21790] (00+13/13) Accurately ripped
03 [7fbe024e|6d96d671] (00+13/13) Accurately ripped
04 [d24ddd18|7f1196ca] (00+13/13) Accurately ripped
05 [7c736f3c|d85fda58] (00+13/13) Accurately ripped
06 [2b33582b|a8257e68] (00+13/13) Accurately ripped
07 [4886b8c1|e81835ee] (00+13/13) Accurately ripped
08 [f9d20824|56eed99d] (00+13/13) Accurately ripped
09 [8d42efd6|f8d00602] (00+13/13) Accurately ripped
10 [cb9b22e7|2a0a7ded] (00+13/13) Accurately ripped
11 [f231aa6f|4b7a44cb] (00+12/12) Accurately ripped
Offsetted by -48:
01 [c291e71a] (00/13) No match
02 [f156c508] (00/13) No match
03 [22889f15] (00/13) No match
04 [be4ab4a1] (00/13) No match
05 [58788ed9] (00/13) No match
06 [e01d3c9a] (00/13) No match
07 [181c5f5e] (00/13) No match
08 [78861472] (00/13) No match
09 [bda8c4c6] (00/13) No match
10 [a1c09b60] (00/13) No match
11 [f6428052] (00/12) No match (V2 was not tested)

Track Peak [ CRC32 ] [W/O NULL] [ LOG ]
– 89,4 [123E00BF] [281B9543] CRC32
01 69,1 [4B0C8516] [0A043B77]
02 81,8 [282DFE92] [D0FA43AE]
03 89,4 [CD256582] [1A1B2022]
04 85,3 [D058BD61] [E99D6085]
05 79,0 [8A8BEAF7] [00E099F7]
06 81,6 [0A283A1F] [78BE6A15]
07 76,7 [87764FF3] [55659706]
08 70,3 [BD24B128] [E20C8C41]
09 84,6 [C2A2F85A] [01B36785]
10 88,0 [407F17AD] [0EE72639]
11 73,9 [3072CAA0] [76FDA902]

Karfagen - 8 Albums (2006-2015)

Karfagen - Aleatorica (2013)
EAC Rip | WavPack (image+.cue+log) - 424 MB | MP3 CBR 320 kbps (LAME 3.93) - 146 MB | Covers - 90 MB
Genre: Progressive Rock | RAR 3% Rec. | Label: Caerllysi Music (CM13011)

Tracklist:
01. Aleatorica (Shuffler's Riddle)
02. Mad Gods of Destiny
03. Shadoof
04. D'ale
05. Gnome in a Bathroom
06. Solar Cydes
07. Transaleatorica
08. Mystic Castles
a) Mediaeval Feast
b) Age of Steam
c) Melting Scene
09. Radio Beam
10. Whirlabout
11. Sweetmeat
12. A Day Without Rain
13. Amazing Ananda
14. Aleatorica (Back to the Alea)

Total time: 01:02:04

Exact Audio Copy V1.0 beta 3 from 29. August 2011

EAC extraction logfile from 28. May 2013, 19:16

Karfagen / Aleatorica

Used drive : TSSTcorpCDDVDW SH-222BB Adapter: 3 ID: 1

Read mode : Secure
Utilize accurate stream : Yes
Defeat audio cache : Yes
Make use of C2 pointers : No

Read offset correction : 6
Overread into Lead-In and Lead-Out : No
Fill up missing offset samples with silence : Yes
Delete leading and trailing silent blocks : No
Null samples used in CRC calculations : Yes
Used interface : Installed external ASPI interface

Used output format : User Defined Encoder
Selected bitrate : 1024 kBit/s
Quality : High
Add ID3 tag : No
Command line compressor : C:\Program Files (x86)\Exact Audio Copy\wavpack.exe
Additional command line options : -hm %source% %dest%


TOC of the extracted CD

Track | Start | Length | Start sector | End sector
––––––––––––––––––––––––––––-
1 | 0:00.00 | 5:38.30 | 0 | 25379
2 | 5:38.30 | 8:23.12 | 25380 | 63116
3 | 14:01.42 | 1:37.10 | 63117 | 70401
4 | 15:38.52 | 2:55.34 | 70402 | 83560
5 | 18:34.11 | 2:29.14 | 83561 | 94749
6 | 21:03.25 | 5:58.43 | 94750 | 121642
7 | 27:01.68 | 1:29.67 | 121643 | 128384
8 | 28:31.60 | 9:36.08 | 128385 | 171592
9 | 38:07.68 | 0:16.01 | 171593 | 172793
10 | 38:23.69 | 5:43.74 | 172794 | 198592
11 | 44:07.68 | 2:15.34 | 198593 | 208751
12 | 46:23.27 | 7:44.67 | 208752 | 243618
13 | 54:08.19 | 2:09.35 | 243619 | 253328
14 | 56:17.54 | 5:46.26 | 253329 | 279304


Range status and errors

Selected range

Filename F:\NetLab\Karfagen - Aleatorica\Karfagen - Aleatorica.wav

Peak level 100.0 %
Extraction speed 7.3 X
Range quality 99.9 %
Test CRC 0666028F
Copy CRC 0666028F
Copy OK

No errors occurred


AccurateRip summary

Track 1 accurately ripped (confidence 1) [66983843] (AR v2)
Track 2 accurately ripped (confidence 1) [8056395D] (AR v2)
Track 3 accurately ripped (confidence 1) [ED750F6D] (AR v2)
Track 4 accurately ripped (confidence 1) [7538F73A] (AR v2)
Track 5 accurately ripped (confidence 1) [14F9C554] (AR v2)
Track 6 accurately ripped (confidence 1) [62409D0E] (AR v2)
Track 7 accurately ripped (confidence 1) [F1660AF3] (AR v2)
Track 8 accurately ripped (confidence 1) [8459356A] (AR v2)
Track 9 accurately ripped (confidence 1) [726E9A4A] (AR v2)
Track 10 accurately ripped (confidence 1) [E05ED999] (AR v2)
Track 11 accurately ripped (confidence 1) [3AD9AECB] (AR v2)
Track 12 accurately ripped (confidence 1) [6804C240] (AR v2)
Track 13 accurately ripped (confidence 1) [40E59463] (AR v2)
Track 14 accurately ripped (confidence 1) [75E4C2D4] (AR v2)

All tracks accurately ripped

End of status report

[CUETools log; Date: 26.11.2019 22:22:12; Version: 2.1.4]
[CTDB TOCID: B_lQoZQAjCbXHbqGTB6KP9wRu3Q-] found.
Track | CTDB Status
1 | (15/15) Accurately ripped
2 | (15/15) Accurately ripped
3 | (14/15) Accurately ripped
4 | (15/15) Accurately ripped
5 | (15/15) Accurately ripped
6 | (15/15) Accurately ripped
7 | (15/15) Accurately ripped
8 | (15/15) Accurately ripped
9 | (15/15) Accurately ripped
10 | (15/15) Accurately ripped
11 | (15/15) Accurately ripped
12 | (14/15) Accurately ripped
13 | (15/15) Accurately ripped
14 | (15/15) Accurately ripped
[AccurateRip ID: 00204697-0153888a-be0e8c0e] found.
Track [ CRC | V2 ] Status
01 [95893a1b|66983843] (0+8/8) Accurately ripped
02 [95ba8ef6|8056395d] (0+8/8) Accurately ripped
03 [c959aae2|ed750f6d] (0+8/8) Accurately ripped
04 [e2016405|7538f73a] (0+8/8) Accurately ripped
05 [5a4a85bf|14f9c554] (0+8/8) Accurately ripped
06 [64a47e1c|62409d0e] (0+8/8) Accurately ripped
07 [5844550d|f1660af3] (0+8/8) Accurately ripped
08 [50de551a|8459356a] (0+8/8) Accurately ripped
09 [836f66b3|726e9a4a] (0+8/8) Accurately ripped
10 [46a10a90|e05ed999] (0+8/8) Accurately ripped
11 [5d47f388|3ad9aecb] (0+8/8) Accurately ripped
12 [1f047fe4|6804c240] (0+8/8) Accurately ripped
13 [38fe65f9|40e59463] (0+8/8) Accurately ripped
14 [4ced9c35|75e4c2d4] (0+8/8) Accurately ripped

Track Peak [ CRC32 ] [W/O NULL] [ LOG ]
– 100,0 [0666028F] [FF71F4E1] CRC32
01 100,0 [06A3978F] [4750FDB9]
02 94,7 [51CB9FF0] [D1FBA49A]
03 67,7 [8CDE327C] [43A25958]
04 100,0 [DD7CE848] [F71D70D7]
05 90,2 [9E02F9D0] [225964AF]
06 100,0 [859A65E4] [947B39D6]
07 77,5 [F1181CCE] [EC9A3749]
08 100,0 [0FD5115D] [E2C2475E]
09 52,8 [9A4C5B28] [34C9E5DC]
10 93,7 [AE414196] [AF5AF3F2]
11 100,0 [97C584DF] [23376EEA]
12 100,0 [FE62BC17] [9B3B88CE]
13 100,0 [F535E046] [C90687D0]
14 100,0 [F3806529] [629049BF]

Karfagen - 8 Albums (2006-2015)

Karfagen - Magician's Theater (2014)
EAC Rip | WavPack (image+.cue+log) - 371 MB | MP3 CBR 320 kbps (LAME 3.93) - 135 MB | Covers - 46 MB
Genre: Progressive Rock | RAR 3% Rec. | Label: Caerllysi Music (CM14014)

Tracklist:
01. Magician's Theater (Overture)
02. The Birth of Mankind
03. Turret
04. Yuletide
05. Figment of the Imagination 1
06. The Fibber's Diary
07. The Jugglers Boast
08. Figment of the Imagination 2
09. Magician's Spell
10. Magician's Theater (Final)

Total time: 57:34

Exact Audio Copy V1.0 beta 3 from 29. August 2011

EAC extraction logfile from 22. May 2014, 18:34

Karfagen / Magicians Theater

Used drive : TSSTcorpCDDVDW SH-222BB Adapter: 0 ID: 1

Read mode : Secure
Utilize accurate stream : Yes
Defeat audio cache : Yes
Make use of C2 pointers : No

Read offset correction : 6
Overread into Lead-In and Lead-Out : No
Fill up missing offset samples with silence : Yes
Delete leading and trailing silent blocks : No
Null samples used in CRC calculations : Yes
Used interface : Installed external ASPI interface

Used output format : User Defined Encoder
Selected bitrate : 1024 kBit/s
Quality : High
Add ID3 tag : No
Command line compressor : C:\Program Files (x86)\Exact Audio Copy\wavpack.exe
Additional command line options : -hm %source% %dest%


TOC of the extracted CD

Track | Start | Length | Start sector | End sector
––––––––––––––––––––––––––––-
1 | 0:00.00 | 6:24.58 | 0 | 28857
2 | 6:24.58 | 5:48.71 | 28858 | 55028
3 | 12:13.54 | 1:30.37 | 55029 | 61815
4 | 13:44.16 | 5:30.59 | 61816 | 86624
5 | 19:15.00 | 1:18.73 | 86625 | 92547
6 | 20:33.73 | 4:29.01 | 92548 | 112723
7 | 25:02.74 | 3:24.09 | 112724 | 128032
8 | 28:27.08 | 2:25.24 | 128033 | 138931
9 | 30:52.32 | 21:06.03 | 138932 | 233884
10 | 51:58.35 | 5:35.57 | 233885 | 259066


Range status and errors

Selected range

Filename F:\NetLab\Karfagen - Magicians Theater\Karfagen - Magicians Theater.wav

Peak level 99.1 %
Extraction speed 7.2 X
Range quality 100.0 %
Test CRC 0205F5D4
Copy CRC 0205F5D4
Copy OK

No errors occurred


AccurateRip summary

Track 1 not present in database
Track 2 not present in database
Track 3 not present in database
Track 4 not present in database
Track 5 not present in database
Track 6 not present in database
Track 7 not present in database
Track 8 not present in database
Track 9 not present in database
Track 10 not present in database

None of the tracks are present in the AccurateRip database

End of status report

–– CUETools DB Plugin V2.1.3

[CTDB TOCID: hl0SSb.OB02e9YW16mp7Q3CC8pY-] disk not present in database, Submit result: hl0SSb.OB02e9YW16mp7Q3CC8pY- has been uploaded

[CUETools log; Date: 26.11.2019 22:23:10; Version: 2.1.4]
[CTDB TOCID: hl0SSb.OB02e9YW16mp7Q3CC8pY-] found.
Track | CTDB Status
1 | (13/13) Accurately ripped
2 | (13/13) Accurately ripped
3 | (13/13) Accurately ripped
4 | (13/13) Accurately ripped
5 | (13/13) Accurately ripped
6 | (13/13) Accurately ripped
7 | (13/13) Accurately ripped
8 | (13/13) Accurately ripped
9 | (13/13) Accurately ripped
10 | (13/13) Accurately ripped
[AccurateRip ID: 001245cd-00942cc4-7e0d7e0a] found.
Track [ CRC | V2 ] Status
01 [b4283818|b6b04760] (0+2/5) Accurately ripped
02 [f90dfe9f|b980c2fa] (0+2/5) Accurately ripped
03 [b6e4972b|4a329ad0] (0+2/5) Accurately ripped
04 [15f041eb|9c2c9618] (0+2/5) Accurately ripped
05 [a1a9d69b|9605f2ab] (0+2/5) Accurately ripped
06 [30afa41d|1360a78f] (0+2/5) Accurately ripped
07 [7c7f3b3d|e3da0c15] (0+2/5) Accurately ripped
08 [b7027b94|03c1d603] (0+2/5) Accurately ripped
09 [784f5cbf|78bd960f] (0+2/5) Accurately ripped
10 [e5c393ca|19d97fbc] (0+2/5) Accurately ripped
Offsetted by 60:
01 [598f5de8] (0/5) No match (V2 was not tested)
02 [fc8bbbf4] (0/5) No match (V2 was not tested)
03 [ba3b3409] (0/5) No match (V2 was not tested)
04 [5e40a8e0] (0/5) No match (V2 was not tested)
05 [53ddf564] (0/5) No match (V2 was not tested)
06 [24450d59] (0/5) No match (V2 was not tested)
07 [5885359d] (0/5) No match (V2 was not tested)
08 [ab1c1da7] (0/5) No match (V2 was not tested)
09 [5a93ea1c] (0/5) No match (V2 was not tested)
10 [298d403a] (0/5) No match (V2 was not tested)

Track Peak [ CRC32 ] [W/O NULL] [ LOG ]
– 99,1 [0205F5D4] [9D9A0D2B] CRC32
01 95,8 [49E320EA] [569C052E]
02 95,5 [6D26E736] [F794F956]
03 61,2 [C48C22DA] [735DFFB2]
04 96,9 [A75BA617] [06CA5CB8]
05 76,2 [C2CA02D8] [F41CB17E]
06 96,7 [B214FA0E] [94822F37]
07 95,7 [C01F6EA6] [F026B992]
08 76,4 [E3A21411] [B59F7FEB]
09 99,1 [EC1C840D] [5E9EED18]
10 96,2 [62691FDA] [06C9BD93]

Karfagen - 8 Albums (2006-2015)

Karfagen - 7 (2015)
EAC Rip | WavPack (image+.cue+log) - 422 MB | MP3 CBR 320 kbps (LAME 3.93) - 159 MB | Covers - 88 MB
Genre: Progressive Rock | RAR 3% Rec. | Label: Caerllysi Music (CM15016)

Tracklist:
01. Seven Gates
02. Now and Ever
03. Hopeless Dreamer
04. Alight Again
05. Seven Gates (Edited version, Bonus track)

Total time: 01:07:29

Exact Audio Copy V1.0 beta 3 from 29. August 2011

EAC extraction logfile from 10. October 2015, 18:55

Karfagen / 7

Used drive : TSSTcorpCDDVDW SH-222BB Adapter: 0 ID: 1

Read mode : Secure
Utilize accurate stream : Yes
Defeat audio cache : Yes
Make use of C2 pointers : No

Read offset correction : 6
Overread into Lead-In and Lead-Out : No
Fill up missing offset samples with silence : Yes
Delete leading and trailing silent blocks : No
Null samples used in CRC calculations : Yes
Used interface : Installed external ASPI interface

Used output format : User Defined Encoder
Selected bitrate : 1024 kBit/s
Quality : High
Add ID3 tag : No
Command line compressor : C:\Program Files (x86)\Exact Audio Copy\wavpack.exe
Additional command line options : -hm %source% %dest%


TOC of the extracted CD

Track | Start | Length | Start sector | End sector
––––––––––––––––––––––––––––-
1 | 0:00.00 | 28:26.53 | 0 | 128002
2 | 28:26.53 | 6:36.22 | 128003 | 157724
3 | 35:03.00 | 7:36.02 | 157725 | 191926
4 | 42:39.02 | 9:24.58 | 191927 | 234284
5 | 52:03.60 | 15:25.29 | 234285 | 303688


Range status and errors

Selected range

Filename I:\NetLab\Karfagen - 7\Karfagen - 7.wav

Peak level 100.0 %
Extraction speed 4.7 X
Range quality 100.0 %
Test CRC 7D338CFB
Copy CRC 7D338CFB
Copy OK

No errors occurred


AccurateRip summary

Track 1 not present in database
Track 2 not present in database
Track 3 not present in database
Track 4 not present in database
Track 5 not present in database

None of the tracks are present in the AccurateRip database

End of status report

–– CUETools DB Plugin V2.1.3

[CTDB TOCID: isiQFGPap16DA4bV2BRl54j7vTM-] found, Submit result: isiQFGPap16DA4bV2BRl54j7vTM- has been confirmed
[5c035ce3] (6/6) Accurately ripped

[CUETools log; Date: 26.11.2019 22:25:01; Version: 2.1.4]
[CTDB TOCID: isiQFGPap16DA4bV2BRl54j7vTM-] found.
Track | CTDB Status
1 | (18/18) Accurately ripped
2 | (18/18) Accurately ripped
3 | (18/18) Accurately ripped
4 | (18/18) Accurately ripped
5 | (18/18) Accurately ripped
[AccurateRip ID: 000f7f4d-004484d1-330fd105] found.
Track [ CRC | V2 ] Status
01 [6bbf8a65|b25b2589] (0+7/7) Accurately ripped
02 [7766d47a|a73fa36b] (0+7/7) Accurately ripped
03 [f2734462|207ca9b1] (0+7/7) Accurately ripped
04 [1f9b6744|a3217cfe] (0+7/7) Accurately ripped
05 [59e9b381|242942b3] (0+7/7) Accurately ripped

Track Peak [ CRC32 ] [W/O NULL] [ LOG ]
– 100,0 [7D338CFB] [8B347180] CRC32
01 100,0 [3D9CD44D] [66F2F8D6]
02 100,0 [61A1EF0D] [AF3F7C92]
03 98,3 [ACC95114] [FD8D9BC5]
04 100,0 [FC4A23DF] [B5CCB180]
05 99,4 [B0D1CCFE] [28AAC057]

Thanks to worand & Pasheka-Pacheka