Subcategories
Tags
Language
Tags

Karunesh - Nirvana Café (2002)

Posted By: gribovar
Karunesh - Nirvana Café (2002)

Karunesh - Nirvana Cafe (2002)
EAC Rip | FLAC (image+.cue+log) - 346 MB | MP3 CBR 320 kbps (LAME 3.93) - 128 MB | Covers - 42 MB
Genre: New Age | RAR 3% Rec. | Label: Real Music (RM4151)

Between the worlds of awake and sleep are welcoming inns and cafes where travelers can rest and acclimatize. At such places, wayfarers often connect with a wise one or simply bask in the music of the spheres before continuing on their way. Virtuoso multi-instrumentalist Karunesh serves exquisite fare at Nirvana Café, melodic rhythms artfully and at times spiritedly blended with an array of flutes, strings, piano, keyboards and percussion. On guitar, guest artist Govi conjures the language of desire, mystery and joy. Stop by for a sip of cosmic nectar or linger over an entire meal at the Nirvana Café.
Tracklist:
01. Dazzled By The Light
02. Chuang Tzu's Dream
03. Blessings Rain
04. Sapphire
05. The Conversation
06. Revelry
07. Follow Your Heart
08. Stargazing
09. Keeper Of Mystery
10. The Peace Within

Total time: 54:24

Exact Audio Copy V1.3 from 2. September 2016

Отчёт EAC об извлечении, выполненном 31. мая 2021, 14:44

Karunesh / Nirvana Cafe

Дисковод: ASUS DRW-24D5MT Adapter: 1 ID: 0

Режим чтения : Достоверность
Использование точного потока : Да
Отключение кэша аудио : Да
Использование указателей C2 : Нет

Коррекция смещения при чтении : 6
Способность читать области Lead-in и Lead-out : Нет
Заполнение пропущенных сэмплов тишиной : Да
Удаление блоков с тишиной в начале и конце : Нет
При вычислениях CRC использовались нулевые сэмплы : Да
Интерфейс : Встроенный Win32-интерфейс для Win NT/2000

Выходной формат : Пользовательский кодировщик
Выбранный битрейт : 128 kBit/s
Качество : Высокий
Добавление ID3-тега : Нет
Утилита сжатия : C:\Program Files (x86)\Exact Audio Copy\FLAC\FLAC.EXE
Дополнительные параметры : -V -8 -T "Date=%year%" -T "Genre=%genre%" %source%


TOC извлечённого CD

Трек | Старт | Длительность | Начальный сектор | Конечный сектор
––––––––––––––––––––––––––––––––––-
1 | 0:00.00 | 5:40.62 | 0 | 25561
2 | 5:40.62 | 5:03.02 | 25562 | 48288
3 | 10:43.64 | 5:52.00 | 48289 | 74688
4 | 16:35.64 | 5:27.29 | 74689 | 99242
5 | 22:03.18 | 5:18.33 | 99243 | 123125
6 | 27:21.51 | 5:11.46 | 123126 | 146496
7 | 32:33.22 | 5:21.74 | 146497 | 170645
8 | 37:55.21 | 5:28.55 | 170646 | 195300
9 | 43:24.01 | 5:36.65 | 195301 | 220565
10 | 49:00.66 | 5:23.17 | 220566 | 244807


Характеристики диапазона извлечения и сообщения об ошибках

Выбранный диапазон

Имя файла C:\EAC\Karunesh - Nirvana Cafe - 2002 CD (Real Music - RM4151)\Karunesh - Nirvana Cafe.wav

Пиковый уровень 99.9 %
Скорость извлечения 1.7 X
Качество диапазона 100.0 %
CRC теста 2F54A3D4
CRC копии 2F54A3D4
Копирование… OK

Ошибок не произошло


AccurateRip: сводка

Трек 1 : извлечено точно (доверие 9) [A13E5C10] (AR v2)
Трек 2 : извлечено точно (доверие 9) [23548D3C] (AR v2)
Трек 3 : извлечено точно (доверие 9) [D0C81697] (AR v2)
Трек 4 : извлечено точно (доверие 9) [C88ADEA1] (AR v2)
Трек 5 : извлечено точно (доверие 9) [5AB229A7] (AR v2)
Трек 6 : извлечено точно (доверие 9) [FEF64026] (AR v2)
Трек 7 : извлечено точно (доверие 9) [033B5134] (AR v2)
Трек 8 : извлечено точно (доверие 9) [530A45C8] (AR v2)
Трек 9 : извлечено точно (доверие 9) [8A96D0CB] (AR v2)
Трек 10 : извлечено точно (доверие 9) [978994E3] (AR v2)

Все треки извлечены точно

Конец отчёта

==== Контрольная сумма отчёта B28B28393F91ADF22E20964FF24A1A13762FBC6A271D00DE063D59070AFE6CC4 ====

[CUETools log; Date: 31.05.2021 13:56:47; Version: 2.1.4]
[CTDB TOCID: ExGhAfhpDwTCiIn32H2C693BZ9o-] found.
Track | CTDB Status
1 | (43/48) Accurately ripped, or (4/48) differs in 6 samples @05:37:66-05:37:68,05:38:10,05:38:15-05:38:19
2 | (47/48) Accurately ripped
3 | (43/48) Accurately ripped, or (4/48) differs in 1 samples @05:49:41
4 | (43/48) Accurately ripped, or (4/48) differs in 1 samples @05:24:37
5 | (43/48) Accurately ripped, or (4/48) differs in 1 samples @05:16:34
6 | (47/48) Accurately ripped
7 | (47/48) Accurately ripped
8 | (43/48) Accurately ripped, or (4/48) differs in 2 samples @05:26:31,05:27:37
9 | (43/48) Accurately ripped, or (4/48) differs in 1 samples @05:34:50
10 | (43/48) Accurately ripped, or (4/48) differs in 1 samples @05:16:44
[AccurateRip ID: 00149477-00a4702f-910cc00a] found.
Track [ CRC | V2 ] Status
01 [f304e1b2|a13e5c10] (08+09/24) Accurately ripped
02 [01eb5d01|23548d3c] (08+09/24) Accurately ripped
03 [823f4122|d0c81697] (08+09/24) Accurately ripped
04 [41150899|c88adea1] (08+09/24) Accurately ripped
05 [1defd97d|5ab229a7] (08+09/24) Accurately ripped
06 [414f0ff3|fef64026] (08+09/24) Accurately ripped
07 [5749d322|033b5134] (08+09/24) Accurately ripped
08 [39951604|530a45c8] (08+09/24) Accurately ripped
09 [a1cc8a1d|8a96d0cb] (08+09/24) Accurately ripped
10 [aee2967a|978994e3] (08+09/24) Accurately ripped
Offsetted by -664:
01 [dc86256a] (03/24) Accurately ripped
02 [b7c0a389] (03/24) Accurately ripped
03 [dc9c839a] (03/24) Accurately ripped
04 [2eb5c999] (03/24) Accurately ripped
05 [62ef806d] (03/24) Accurately ripped
06 [a0a98873] (03/24) Accurately ripped
07 [f309b33a] (03/24) Accurately ripped
08 [19daaa3c] (03/24) Accurately ripped
09 [cd0b5ed5] (03/24) Accurately ripped
10 [9301c6d2] (03/24) Accurately ripped

Track Peak [ CRC32 ] [W/O NULL] [ LOG ]
– 99,9 [2F54A3D4] [BE85049D] CRC32
01 98,3 [83B0BB8E] [68A486B3]
02 99,1 [73C1B883] [56C5F3F5]
03 99,2 [6FFBCBD0] [B1393C06]
04 99,9 [49E4BD62] [95D9E3FE]
05 99,0 [892D2ACC] [D450C952]
06 99,2 [26515D92] [73287D90]
07 99,2 [455435C6] [47095BD7]
08 99,2 [5F15BB04] [AC536A04]
09 99,2 [3A0B6086] [14BE2E81]
10 99,0 [42F926F5] [711A28EB]

Thanks to s-p-m2009

See also:
Karunesh - Zen Breakfast (2001)