Tags
Language
Tags

Kate Bush - Live at Hammersmith Odeon 1979 (1994) [Re-Up]

Posted By: Designol
Kate Bush - Live at Hammersmith Odeon 1979 (1994) [Re-Up]

Kate Bush - Live at Hammersmith Odeon 1979 (1994)
EAC | FLAC | Image (Cue&Log) ~ 377 Mb | Mp3 (CBR320) ~ 138 Mb | Scans included
Label: EMI, Picture Music International | # 7243 8 30065 2 6, SAV 4913063
Art Rock, Adult Alternative Pop/Rock | Time: 00:53:19

Live at Hammersmith Odeon is the first live album by the British singer Kate Bush. It is a recording of her first of only two concert tours, The Tour of Life from 1979, first released on home video in 1981. The video of The Tour of Life was re-released in 1994 as a boxed set that included a CD version of the performance. The twelve song live album is heavily abridged. The complete show consisted of twenty-four songs. The performance consists mainly of songs from The Kick Inside and Lionheart with a new song "Violin"; which would subsequently appear on Bush's third studio album Never for Ever in 1980.

While Kate Bush has never managed to find major success in the United States, she has created quite a legend for herself in her home country of England. Still, there are legions of die-hard fans in the U.S. who buy her every album. The news of the live concert Live at the Hammersmith Odeon 1979 being made available, ten years after its recording, came as very welcome news to Bush fans stateside who still fantasize about her live performances. Kate runs through some of her best songs, and even without the benefit of her stunningly visual stage show, the music remains fresh and exciting. From the sultry ballad "Feel It" to the hard-rocking "James and the Cold Gun," Live at the Hammersmith is an audible feast.

Review by Michael B. Smith, Allmusic.com

Kate Bush - Live at Hammersmith Odeon 1979 (1994) [Re-Up]



Tracklist:

01. Moving (3:32)
02. Them Heavy People (4:02)
03. Violin (3:32)
04. Strange Phenomena (3:26)
05. Hammer Horror (4:25)
06. Don't Push Your Foot On The Heartbrake (3:55)
07. Wow (4:05)
08. Feel It (3:14)
09. Kite (6:12)
10. James and the Cold Gun (8:44)
11. Oh England My Lionheart (3:23)
12. Wuthering Heights (4:49)


Exact Audio Copy V1.0 beta 3 from 29. August 2011

EAC extraction logfile from 25. September 2012, 21:05

Kate Bush / Live at Hammersmith Odeon (7243 8 30065 2 6)

Used drive : HL-DT-STDVDRAM GE20NU11 Adapter: 0 ID: 1

Read mode : Secure
Utilize accurate stream : Yes
Defeat audio cache : Yes
Make use of C2 pointers : No

Read offset correction : 667
Overread into Lead-In and Lead-Out : No
Fill up missing offset samples with silence : Yes
Delete leading and trailing silent blocks : No
Null samples used in CRC calculations : Yes
Used interface : Native Win32 interface for Win NT & 2000

Used output format : User Defined Encoder
Selected bitrate : 896 kBit/s
Quality : High
Add ID3 tag : No
Command line compressor : C:\Program Files\EAC 3\Exact Audio Copy\Flac\flac.exe
Additional command line options : -V -8 %source%


TOC of the extracted CD

Track | Start | Length | Start sector | End sector
––––––––––––––––––––––––––––-
1 | 0:00.00 | 3:31.52 | 0 | 15876
2 | 3:31.52 | 4:01.65 | 15877 | 34016
3 | 7:33.42 | 3:32.30 | 34017 | 49946
4 | 11:05.72 | 3:25.58 | 49947 | 65379
5 | 14:31.55 | 4:25.35 | 65380 | 85289
6 | 18:57.15 | 3:54.62 | 85290 | 102901
7 | 22:52.02 | 4:04.45 | 102902 | 121246
8 | 26:56.47 | 3:14.05 | 121247 | 135801
9 | 30:10.52 | 6:12.18 | 135802 | 163719
10 | 36:22.70 | 8:44.30 | 163720 | 203049
11 | 45:07.25 | 3:22.52 | 203050 | 218251
12 | 48:30.02 | 4:49.30 | 218252 | 239956


Range status and errors

Selected range

Filename C:\OdW\(1979) Live at Hammersmith Odeon (7243 8 30065 2 6)\Kate Bush - Live at Hammersmith Odeon (7243 8 30065 2 6).wav

Peak level 100.0 %
Extraction speed 2.0 X
Range quality 99.9 %
Test CRC A1C407EE
Copy CRC A1C407EE
Copy OK

No errors occurred


AccurateRip summary

Track 1 accurately ripped (confidence 5) [79CB738B] (AR v1)
Track 2 accurately ripped (confidence 5) [07AC668C] (AR v1)
Track 3 accurately ripped (confidence 5) [D11DFB57] (AR v1)
Track 4 accurately ripped (confidence 5) [3BD54125] (AR v1)
Track 5 accurately ripped (confidence 5) [3780AE5D] (AR v1)
Track 6 accurately ripped (confidence 5) [09DEAAD1] (AR v1)
Track 7 accurately ripped (confidence 5) [01C557AD] (AR v1)
Track 8 accurately ripped (confidence 5) [83377EFF] (AR v1)
Track 9 accurately ripped (confidence 5) [4BE24EE2] (AR v1)
Track 10 accurately ripped (confidence 5) [9AFC7AA5] (AR v1)
Track 11 accurately ripped (confidence 5) [AD067B1B] (AR v1)
Track 12 accurately ripped (confidence 5) [889E8DDA] (AR v1)

All tracks accurately ripped

End of status report

==== Log checksum 031AB3D6310125C8EEC9D43C4B0224D5408C440038DBD27F01FC32F548A77B67 ====

[CUETools log; Date: 29.08.2018 1:04:04; Version: 2.1.4]
[CTDB TOCID: Tk7BbtkbiTVcjzi4MwG3nZUV.BE-] found.
Track | CTDB Status
1 | (7/7) Accurately ripped
2 | (7/7) Accurately ripped
3 | (7/7) Accurately ripped
4 | (7/7) Accurately ripped
5 | (7/7) Accurately ripped
6 | (7/7) Accurately ripped
7 | (7/7) Accurately ripped
8 | (7/7) Accurately ripped
9 | (7/7) Accurately ripped
10 | (7/7) Accurately ripped
11 | (6/7) Accurately ripped
12 | (6/7) Accurately ripped
[AccurateRip ID: 0015e731-00d0f405-a30c7f0c] found.
Track [ CRC | V2 ] Status
01 [79cb738b|1adcf95f] (05+08/13) Accurately ripped
02 [07ac668c|a610abcf] (05+08/13) Accurately ripped
03 [d11dfb57|578ae59d] (05+08/13) Accurately ripped
04 [3bd54125|54cfb900] (05+08/13) Accurately ripped
05 [3780ae5d|2f54971e] (05+08/13) Accurately ripped
06 [09deaad1|c8ddf26d] (05+08/13) Accurately ripped
07 [01c557ad|cbb9ba16] (05+08/13) Accurately ripped
08 [83377eff|f09de088] (05+08/13) Accurately ripped
09 [4be24ee2|934369dd] (05+08/13) Accurately ripped
10 [9afc7aa5|0c062360] (05+07/12) Accurately ripped
11 [ad067b1b|87457a13] (05+08/13) Accurately ripped
12 [889e8dda|14951620] (05+08/13) Accurately ripped

Track Peak [ CRC32 ] [W/O NULL] [ LOG ]
– 100,0 [A1C407EE] [9F1A0D77] CRC32
01 84,2 [DDD82819] [1146BAC3]
02 87,4 [758E068C] [D5C6BC62]
03 89,9 [2A2ADB0A] [49BB357B]
04 91,8 [8E3E9AD7] [E33422A9]
05 98,4 [FB639971] [175FA97C]
06 91,7 [A0EB5799] [852F91A0]
07 90,7 [B8905E5D] [1C08FA94]
08 55,8 [788B3D1D] [4C23A815]
09 100,0 [C2848CA5] [AD75D916]
10 100,0 [D1E0078D] [C5E5AF96]
11 51,5 [FE32B358] [E291541B]
12 100,0 [6F1B6011] [FB356EFD]

foobar2000 1.2 / Dynamic Range Meter 1.1.1
log date: 2018-08-29 21:20:41

––––––––––––––––––––––––––––––––––––––––
Analyzed: Kate Bush / Live at Hammersmith Odeon (7243 8 30065 2 6)
––––––––––––––––––––––––––––––––––––––––

DR Peak RMS Duration Track
––––––––––––––––––––––––––––––––––––––––
DR13 -1.49 dB -17.18 dB 3:32 01-Moving
DR13 -1.17 dB -16.47 dB 4:02 02-Them Heavy People
DR11 -0.92 dB -14.37 dB 3:32 03-Violin
DR13 -0.74 dB -17.90 dB 3:26 04-Strange Phenomena
DR12 -0.14 dB -15.73 dB 4:25 05-Hammer Horror
DR13 -0.75 dB -17.10 dB 3:55 06-Don't Push Your Foot On The Heartbrake
DR11 -0.84 dB -15.45 dB 4:05 07-Wow
DR11 -5.06 dB -21.11 dB 3:14 08-Feel It
DR12 0.00 dB -15.37 dB 6:12 09-Kite
DR12 0.00 dB -14.80 dB 8:44 10-James and the Cold Gun
DR12 -5.75 dB -21.58 dB 3:23 11-Oh England My Lionheart
DR12 0.00 dB -14.05 dB 4:49 12-Wuthering Heights
––––––––––––––––––––––––––––––––––––––––

Number of tracks: 12
Official DR value: DR12

Samplerate: 44100 Hz
Channels: 2
Bits per sample: 16
Bitrate: 841 kbps
Codec: FLAC
================================================================================

Kate Bush - Live at Hammersmith Odeon 1979 (1994) [Re-Up]

Kate Bush - Live at Hammersmith Odeon 1979 (1994) [Re-Up]