Tags
Language
Tags

Kate Bush - Rocket Man / Candle In The Wind (1991) Maxi Single [Re-Up]

Posted By: Designol
Kate Bush - Rocket Man / Candle In The Wind (1991) Maxi Single [Re-Up]

Kate Bush - Rocket Man / Candle In The Wind (1991) Maxi Single
EAC | FLAC | Image (Cue.+Log) ~ 112 Mb | Mp3 (CBR320) ~ 63 Mb | Scans included
Genre: Soft Rock, Pop/Rock | Label: Mercury | # 866 311-2 | Time: 00:13:59

Kate Bush released a cover of "Rocket Man" in 1991 as part of the Elton John/Bernie Taupin tribute album Two Rooms: Celebrating the Songs of Elton John & Bernie Taupin. Her reggae-inflected version of "Rocket Man" was a commercial success, reaching #12 on the UK singles chart and #2 in Australia (held off the top spot by Julian Lennon's "Saltwater"). In 2007, the track won The Observer readers' award for Greatest Cover of all time. The B-side of the single was Bush's recording of another Elton John classic, "Candle in the Wind".

Kate Bush - Rocket Man / Candle In The Wind (1991) Maxi Single [Re-Up]



Tracklist:

1. Rocket Man (I Think It's Going To Be A Long, Long Time) (5:02)
2. Candle In The Wind (4:29)
3. Candle In The Wind (Instrumental Version) (4:28)


Exact Audio Copy V1.0 beta 3 from 29. August 2011

EAC extraction logfile from 29. January 2012, 23:29

Kate Bush / Rocket Man - Candle In The Wind (866 311-2)

Used drive : HL-DT-STDVDRW GSA-S10N Adapter: 0 ID: 1

Read mode : Secure
Utilize accurate stream : Yes
Defeat audio cache : Yes
Make use of C2 pointers : No

Read offset correction : 667
Overread into Lead-In and Lead-Out : No
Fill up missing offset samples with silence : Yes
Delete leading and trailing silent blocks : No
Null samples used in CRC calculations : Yes
Used interface : Native Win32 interface for Win NT & 2000

Used output format : User Defined Encoder
Selected bitrate : 768 kBit/s
Quality : High
Add ID3 tag : No
Command line compressor : C:\Program Files\Exact Audio Copy 1.3\Flac\flac.exe
Additional command line options : -V -8 %source%


TOC of the extracted CD

Track | Start | Length | Start sector | End sector
––––––––––––––––––––––––––––-
1 | 0:00.33 | 5:02.35 | 33 | 22717
2 | 5:02.68 | 4:28.65 | 22718 | 42882
3 | 9:31.58 | 4:27.57 | 42883 | 62964


Range status and errors

Selected range

Filename C:\Olaf der Weisse\Kate Bush . 1991 . Rocket Man - Candle In The Wind (866 311-2)\Kate Bush - Rocket Man - Candle In The Wind (866 311-2).wav

Peak level 95.5 %
Extraction speed 1.7 X
Range quality 100.0 %
Test CRC 4407EF7E
Copy CRC 4407EF7E
Copy OK

No errors occurred


AccurateRip summary

Track 1 accurately ripped (confidence 5) [E16D8127] (AR v2)
Track 2 accurately ripped (confidence 5) [2CFF2C69] (AR v2)
Track 3 accurately ripped (confidence 4) [B8D6D3FF] (AR v2)

All tracks accurately ripped

End of status report

==== Log checksum D65E21FF38A9B2BFEB3075BB3ED124E19C437628C7C070EBA0D02CCC3CE9C415 ====

foobar2000 1.2 / Dynamic Range Meter 1.1.1
log date: 2016-06-18 16:47:04

––––––––––––––––––––––––––––––––––––––––
Analyzed: Kate Bush / Rocket Man - Candle In The Wind (866 311-2)
––––––––––––––––––––––––––––––––––––––––

DR Peak RMS Duration Track
––––––––––––––––––––––––––––––––––––––––
DR14 -0.39 dB -18.37 dB 5:02 01-Rocket Man (I Think It's Going To Be A Long, Long Time)
DR11 -3.08 dB -17.43 dB 4:29 02-Candle In The Wind
DR12 -4.88 dB -19.86 dB 4:28 03-Candle In The Wind (Instrumental Version)
––––––––––––––––––––––––––––––––––––––––

Number of tracks: 3
Official DR value: DR12

Samplerate: 44100 Hz
Channels: 2
Bits per sample: 16
Bitrate: 805 kbps
Codec: FLAC
================================================================================

Kate Bush - Rocket Man / Candle In The Wind (1991) Maxi Single [Re-Up]

Kate Bush - Rocket Man / Candle In The Wind (1991) Maxi Single [Re-Up]

All thanks to original releaser - Olaf der Weisse

More interesting music in My Blog