Subcategories

Katie Webster - The Swamp Boogie Queen (1988)

Posted By: uff
Katie Webster - The Swamp Boogie Queen (1988)

Katie Webster - The Swamp Boogie Queen (1988)
Blues | 1cd | EAC Rip | Ape + Cue + Log | covers
Alligator, ALCD 4766 | rel: 1988 | 305Mb

Lovable Katie Webster had some high-profile help for this impressive comeback album – Bonnie Raitt shares the vocal on "Somebody's on Your Case" and plays guitar on "On the Run"; Kim Wilson duets with Webster for a cover of Johnnie Taylor's "Who's Making Love" (a track that Robert Cray contributes crisp guitar to). Throughout, Webster's vocals are throatier than they used to be (she soulfully covers one-time mentor Otis Redding's "Fa-Fa-Fa-Fa-Fa [Sad Song]" and "Try a Little Tenderness"), while her driving left hand still lays down some powerhouse boogie rhythms. ~Allmusic

Track listing
01. Who's Makin Love? (4:00)
02. Sea of Love (3:19)
03. Black Satin (3:48)
04. After You Get Rid of Me (5:34)
05. Fa-Fa-Fa-Fa-Fa [Sad Song] (2:37)
06. No Bread, No Meat (4:20)
07. Whoo Whee Sweet Daddy (3:18)
08. Try A Little Tenderness (4:19)
09. Hold On To What You Got (4:34)
10. Somebody's On Your Case (3:10)
11. On the Run (6:32)
12. Lord I Wonder (4:03)

Personnel
- Bass – Russel Jackson
- Drums – Tony Coleman
- Guitar – Andrew Jones
- Harmonica – Kim Wilson
- Horns – The Memphis Horns


Exact Audio Copy V0.99 prebeta 4 from 23. January 2008

Отчёт EAC об извлечении, выполненном 23. апреля 2009, 18:12

Katie Webster / The Swamp Boogie Queen

Дисковод: ASUS DRW-20B1LT Adapter: 2 ID: 0

Режим чтения : Достоверность
Использование точного потока : Да
Отключение кэша аудио : Да
Использование указателей C2 : Нет

Коррекция смещения при чтении : 48
Способность читать области Lead-in и Lead-out : Нет
Заполнение пропущенных сэмплов тишиной : Да
Удаление блоков с тишиной в начале и конце : Нет
При вычислениях CRC использовались нулевые сэмплы : Да
Интерфейс : Встроенный Win32-интерфейс для Win NT/2000

Выходной формат : Внутренние WAV-операции
Формат сэмплов : 44.100 Гц; 16 бит; стерео


TOC извлечённого CD

Трек | Старт | Длительность | Начальный сектор | Конечный сектор
––––––––––––––––––––––––––––––––––-
1 | 0:00.00 | 4:02.32 | 0 | 18181
2 | 4:02.32 | 3:21.20 | 18182 | 33276
3 | 7:23.52 | 3:50.13 | 33277 | 50539
4 | 11:13.65 | 5:36.47 | 50540 | 75786
5 | 16:50.37 | 2:39.03 | 75787 | 87714
6 | 19:29.40 | 4:22.72 | 87715 | 107436
7 | 23:52.37 | 3:20.70 | 107437 | 122506
8 | 27:13.32 | 4:21.63 | 122507 | 142144
9 | 31:35.20 | 4:36.25 | 142145 | 162869
10 | 36:11.45 | 3:12.37 | 162870 | 177306
11 | 39:24.07 | 6:34.63 | 177307 | 206919
12 | 45:58.70 | 4:03.40 | 206920 | 225184


Характеристики диапазона извлечения и сообщения об ошибках

Выбранный диапазон

Имя файла E:\Lossless\Katie Webster (1988)\Katie Webster - The Swamp Boogie Queen.wav

Пиковый уровень 100.0 %
Качество диапазона 99.9 %
CRC копии A1498CC3
Копирование… OK

Ошибок не произошло

Конец отчёта



[CUETools log; Date: 2016. 10. 03. 20:35:47; Version: 2.1.6]
[CTDB TOCID: fMw1OpHcLdnFVbIfCRMF8wFo3Wo-] found.
Track | CTDB Status
1 | (1/1) Accurately ripped
2 | (1/1) Accurately ripped
3 | (1/1) Accurately ripped
4 | (1/1) Accurately ripped
5 | (1/1) Accurately ripped
6 | (1/1) Accurately ripped
7 | (1/1) Accurately ripped
8 | (1/1) Accurately ripped
9 | (1/1) Accurately ripped
10 | (1/1) Accurately ripped
11 | (1/1) Accurately ripped
12 | (1/1) Accurately ripped
[AccurateRip ID: 00158350-00ca186b-9a0bba0c] disk not present in database.

Track Peak [ CRC32 ] [W/O NULL]
– 100,0 [A1498CC3] [53690AB1]
01 86,5 [EFE43463] [CF0D693B]
02 100,0 [504D1769] [22544A34]
03 82,4 [AEF0CED3] [345A7F84]
04 99,9 [AC132DEC] [55C4D4F0]
05 100,0 [68C158FD] [E551D01B]
06 80,3 [683EF86C] [C75FD545]
07 67,3 [44C67D47] [769E5A66]
08 98,8 [525C1882] [F14350D6]
09 74,1 [BC01D60A] [3ED639CE]
10 82,3 [58E5EE02] [5E0C9139]
11 95,3 [6BAE5668] [864DAEFD]
12 53,9 [AFEFE658] [8839604E]


Thx to J Jesus
Bigfile
Filefactory

password: asd