Subcategories

Keith Jarrett Trio - Bye Bye Blackbird (1993) Reissue 2008 [Re-Up]

Posted By: Designol
Keith Jarrett Trio - Bye Bye Blackbird (1993) Reissue 2008 [Re-Up]

Keith Jarrett Trio - Bye Bye Blackbird (1993) Reissue 2008
EAC | FLAC | Tracks (Cue&Log) ~ 344Mb | Mp3 (CBR320) ~ 166 Mb | Scans included
Post-Bop, Piano Jazz, Standards | Label: ECM | # ECM 1467, 177 6230 | 01:07:55

This is the Keith Jarrett Trio's – featuring bassist Gary Peacock and drummer Jack DeJohnette – elegy for their former employer Miles Davis, recorded only 13 days after the maestro's death. The lonely figure in shadow with a horn on the cover contrasts with the joyous spirit of many of the tracks on this CD, yet there is still a ghostly presence to deal with – and in keeping with Miles' credo, Jarrett's choice of notes is often more purposefully spare than usual. There is symmetry in the organization of the album, with "Bye Bye Blackbird" opening and the trio's equally jaunty "Blackbird, Bye Bye" closing the album, and the interior tracks immediately following the former and preceding the latter are "You Won't Forget Me" and "I Thought About You." The centerpiece of the CD is an 18-and-a-half-minute group improvisation, "For Miles," which after some DeJohnette tumbling around becomes a dirge sometimes reminiscent of Miles' own elegy for Duke Ellington, "He Loved Him Madly." As an immediate response to a traumatic event, Jarrett and his colleagues strike the right emotional balance to create one of their more meaningful albums.

Review by Richard S. Ginell, Allmusic.com

Keith Jarrett Trio - Bye Bye Blackbird (1993) Reissue 2008 [Re-Up]

Keith Jarrett Trio: Jack DeJohnette (drums), Keith Jarrett (piano), Gary Peacock (bass)

Keith Jarrett at Allmusic
Keith Jarrett at Wiki


Tracklist:

01. Bye Bye Blackbird (11:14)
02. You Won't Forget Me (10:46)
03. Butch And Butch (06:37)
04. Summer Night (06:42)
05. For Miles (18:43)
06. Straight No Chaser (06:47)
07. I Thought About You (04:02)
08. Blackbird, Bye Bye (03:00)


Exact Audio Copy V0.99 prebeta 4 from 23. January 2008

EAC extraction logfile from 1. May 2009, 19:29

Keith Jarrett / Bye Bye Blackbird

Used drive : TSSTcorpCD/DVDW SH-W162L Adapter: 0 ID: 1

Read mode : Secure
Utilize accurate stream : Yes
Defeat audio cache : Yes
Make use of C2 pointers : No

Read offset correction : 6
Overread into Lead-In and Lead-Out : No
Fill up missing offset samples with silence : Yes
Delete leading and trailing silent blocks : No
Null samples used in CRC calculations : Yes
Used interface : Native Win32 interface for Win NT & 2000
Gap handling : Appended to previous track

Used output format : User Defined Encoder
Selected bitrate : 768 kBit/s
Quality : High
Add ID3 tag : No
Command line compressor : C:\Program Files\Exact Audio Copy\FLAC\FLAC.EXE
Additional command line options : -V -8 -T "artist=%a" -T "title=%t" -T "album=%g" -T "date=%y" -T "tracknumber=%n" -T "genre=%m" %s


TOC of the extracted CD

Track | Start | Length | Start sector | End sector
––––––––––––––––––––––––––––-
1 | 0:00.00 | 11:14.00 | 0 | 50549
2 | 11:14.00 | 10:46.52 | 50550 | 99051
3 | 22:00.52 | 6:37.23 | 99052 | 128849
4 | 28:38.00 | 6:42.65 | 128850 | 159064
5 | 35:20.65 | 18:43.47 | 159065 | 243336
6 | 54:04.37 | 6:47.63 | 243337 | 273924
7 | 60:52.25 | 4:02.37 | 273925 | 292111
8 | 64:54.62 | 3:00.20 | 292112 | 305631


Track 1

Filename D:\EAC Rips\Keith Jarrett - Bye Bye Blackbird [FLAC]\01 Bye Bye Blackbird.wav

Pre-gap length 0:00:02.00

Peak level 87.2 %
Track quality 100.0 %
Test CRC 9C7D9339
Copy CRC 9C7D9339
Accurately ripped (confidence 2) [1A6D6849]
Copy OK

Track 2

Filename D:\EAC Rips\Keith Jarrett - Bye Bye Blackbird [FLAC]\02 You Won't Forget Me.wav

Pre-gap length 0:00:02.13

Peak level 67.3 %
Track quality 100.0 %
Test CRC 5ACD5DCC
Copy CRC 5ACD5DCC
Accurately ripped (confidence 2) [3EBD82F6]
Copy OK

Track 3

Filename D:\EAC Rips\Keith Jarrett - Bye Bye Blackbird [FLAC]\03 Butch And Butch.wav

Pre-gap length 0:00:04.36

Peak level 99.6 %
Track quality 100.0 %
Test CRC 7C40CDED
Copy CRC 7C40CDED
Accurately ripped (confidence 2) [8CA3D868]
Copy OK

Track 4

Filename D:\EAC Rips\Keith Jarrett - Bye Bye Blackbird [FLAC]\04 Summer Night.wav

Pre-gap length 0:00:00.24

Peak level 75.4 %
Track quality 100.0 %
Test CRC 4C7102CC
Copy CRC 4C7102CC
Accurately ripped (confidence 2) [6BA15662]
Copy OK

Track 5

Filename D:\EAC Rips\Keith Jarrett - Bye Bye Blackbird [FLAC]\05 For Miles.wav

Pre-gap length 0:00:04.70

Peak level 96.2 %
Track quality 100.0 %
Test CRC 5F356770
Copy CRC 5F356770
Accurately ripped (confidence 2) [AB318BD1]
Copy OK

Track 6

Filename D:\EAC Rips\Keith Jarrett - Bye Bye Blackbird [FLAC]\06 Straight No Chaser.wav

Pre-gap length 0:00:03.80

Peak level 93.8 %
Track quality 100.0 %
Test CRC 1D5E6430
Copy CRC 1D5E6430
Accurately ripped (confidence 2) [0A54D93B]
Copy OK

Track 7

Filename D:\EAC Rips\Keith Jarrett - Bye Bye Blackbird [FLAC]\07 I Thought About You.wav

Pre-gap length 0:00:03.06

Peak level 35.7 %
Track quality 100.0 %
Test CRC 8125EBFE
Copy CRC 8125EBFE
Accurately ripped (confidence 2) [B3BA08AC]
Copy OK

Track 8

Filename D:\EAC Rips\Keith Jarrett - Bye Bye Blackbird [FLAC]\08 Blackbird, Bye Bye.wav

Pre-gap length 0:00:00.82

Peak level 68.8 %
Track quality 100.0 %
Test CRC E1895252
Copy CRC E1895252
Accurately ripped (confidence 2) [0A3CF8CC]
Copy OK


All tracks accurately ripped

No errors occurred

End of status report

foobar2000 1.2 / Dynamic Range Meter 1.1.1
log date: 2015-12-24 21:56:04

––––––––––––––––––––––––––––––––––––––––
Analyzed: Keith Jarrett Trio / Bye Bye Blackbird
––––––––––––––––––––––––––––––––––––––––

DR Peak RMS Duration Track
––––––––––––––––––––––––––––––––––––––––
DR16 -1.18 dB -21.99 dB 11:14 01-Bye Bye Blackbird
DR18 -3.43 dB -28.74 dB 10:47 02-You Won't Forget Me
DR16 -0.03 dB -20.41 dB 6:37 03-Butch And Butch
DR16 -2.45 dB -25.05 dB 6:43 04-Summer Night
DR20 -0.33 dB -25.88 dB 18:44 05-For Miles
DR16 -0.55 dB -20.76 dB 6:48 06-Straight No Chaser
DR15 -8.93 dB -30.15 dB 4:02 07-I Thought About You
DR16 -3.24 dB -27.11 dB 3:00 08-Blackbird, Bye Bye
––––––––––––––––––––––––––––––––––––––––

Number of tracks: 8
Official DR value: DR17

Samplerate: 44100 Hz
Channels: 2
Bits per sample: 16
Bitrate: 709 kbps
Codec: FLAC
================================================================================

Keith Jarrett Trio - Bye Bye Blackbird (1993) Reissue 2008 [Re-Up]

Keith Jarrett Trio - Bye Bye Blackbird (1993) Reissue 2008 [Re-Up]

All thanks to original releaser

More interesting music in My Blog