Tags
Language
Tags

Keith Jarrett Trio - Standards Live (1986) {ECM 1317} [Re-Up]

Posted By:
Keith Jarrett Trio - Standards Live (1986) {ECM 1317} [Re-Up]

Keith Jarrett Trio - Standards Live (1986) {ECM 1317}
EAC 0.99pb4 | FLAC tracks level 8 | Cue+Log+M3U | Full Scans 600dpi | 318MB + 5% Recovery
MP3 CBR 320 Kbps | 150MB + 5% Recovery
Genre: Jazz, Post-Bop
Keith Jarrett Trio - Standards Live (1986) {ECM 1317} [Re-Up]

Standards Live is a live jazz album released by the Keith Jarrett trio in 1986. The album presents a live performance of pianist Keith Jarrett with Gary Peacock on bass and Jack De Johnette on drums, recorded on July 2, 1985 in Paris, at the Palais des Congrès Studios de la Grande Armée, the second of a two-night engagement at that venue. The interplay between the players is constantly impressive.
Track List
01. Stella By Starlight 11:14
02. The Wrong Blues 8:03
03. Falling In Love With Love 8:41
04. Too Young To Go Steady 10:10
05. Way You Look Tonight 9:31
06. The Old Country 6:36

musicians
Keith Jarrett - piano
Gary Peacock - double-bass
Jack DeJohnette – drums

Produced by Manfred Eicher


Exact Audio Copy V0.99 prebeta 4 from 23. January 2008

EAC extraction logfile from 27. June 2011, 6:02

Keith Jarrett Trio / Standards Live

Used drive : HL-DT-STDVDRAM GSA-E10L Adapter: 2 ID: 0

Read mode : Secure
Utilize accurate stream : Yes
Defeat audio cache : Yes
Make use of C2 pointers : No

Read offset correction : 667
Overread into Lead-In and Lead-Out : No
Fill up missing offset samples with silence : Yes
Delete leading and trailing silent blocks : No
Null samples used in CRC calculations : Yes
Used interface : Installed external ASPI interface
Gap handling : Appended to previous track

Used output format : User Defined Encoder
Selected bitrate : 768 kBit/s
Quality : High
Add ID3 tag : No
Command line compressor : C:\Programmi\Exact Audio Copy\Flac\flac.exe
Additional command line options : -8 -V -T "ARTIST=%a" -T "TITLE=%t" -T "ALBUM=%g" -T "DATE=%y" -T "TRACKNUMBER=%n" -T "GENRE=%m" -T "COMMENT=%e" %s -o %d


TOC of the extracted CD

Track | Start | Length | Start sector | End sector
––––––––––––––––––––––––––––-
1 | 0:00.33 | 11:14.35 | 33 | 50617
2 | 11:14.68 | 8:03.40 | 50618 | 86882
3 | 19:18.33 | 8:44.60 | 86883 | 126242
4 | 28:03.18 | 10:10.65 | 126243 | 172057
5 | 38:14.08 | 9:31.42 | 172058 | 214924
6 | 47:45.50 | 6:36.23 | 214925 | 244647


Track 1

Filename C:\EACrip\01 - Keith Jarrett Trio - Stella By Starlight.wav

Pre-gap length 0:00:02.44

Peak level 59.9 %
Track quality 100.0 %
Test CRC F20993F9
Copy CRC F20993F9
Accurately ripped (confidence 24) [94A6EAAF]
Copy OK

Track 2

Filename C:\EACrip\02 - Keith Jarrett Trio - The Wrong Blues.wav

Peak level 61.6 %
Track quality 100.0 %
Test CRC 5DC93355
Copy CRC 5DC93355
Accurately ripped (confidence 24) [AAFA789D]
Copy OK

Track 3

Filename C:\EACrip\03 - Keith Jarrett Trio - Falling In Love With Love.wav

Peak level 79.0 %
Track quality 100.0 %
Test CRC 8212FBC6
Copy CRC 8212FBC6
Accurately ripped (confidence 24) [25A1FEB7]
Copy OK

Track 4

Filename C:\EACrip\04 - Keith Jarrett Trio - Too Young To Go Steady.wav

Pre-gap length 0:00:03.70

Peak level 74.0 %
Track quality 100.0 %
Test CRC 9CF1573A
Copy CRC 9CF1573A
Accurately ripped (confidence 24) [D29E2414]
Copy OK

Track 5

Filename C:\EACrip\05 - Keith Jarrett Trio - The Way You Look Tonight.wav

Peak level 70.6 %
Track quality 100.0 %
Test CRC 6D58C0EB
Copy CRC 6D58C0EB
Accurately ripped (confidence 24) [743C543E]
Copy OK

Track 6

Filename C:\EACrip\06 - Keith Jarrett Trio - The Old Country.wav

Peak level 87.7 %
Track quality 100.0 %
Test CRC C06CE41A
Copy CRC C06CE41A
Accurately ripped (confidence 24) [5392107F]
Copy OK


All tracks accurately ripped

No errors occurred

End of status report


––––––––––––––––––––––––––––––––––––––––
Analyzed: Keith Jarrett Trio / Standards Live
––––––––––––––––––––––––––––––––––––––––

DR Peak RMS Duration Track
––––––––––––––––––––––––––––––––––––––––
DR14 -4.44 dB -22.56 dB 11:14 01-Stella By Starlight
DR13 -4.21 dB -19.95 dB 8:04 02-The Wrong Blues
DR13 -2.04 dB -18.01 dB 8:45 03-Falling In Love With Love
DR14 -2.60 dB -21.00 dB 10:11 04-Too Young To Go Steady
DR15 -3.01 dB -20.87 dB 9:32 05-The Way You Look Tonight
DR13 -1.13 dB -20.64 dB 6:36 06-The Old Country
––––––––––––––––––––––––––––––––––––––––

Number of tracks: 6
Official DR value: DR14

Samplerate: 44100 Hz
Channels: 2
Bits per sample: 16
Bitrate: 760 kbps
Codec: FLAC
================================================================================

Keith Jarrett Trio - Standards Live (1986) {ECM 1317} [Re-Up]
Keith Jarrett Trio - Standards Live (1986) {ECM 1317} [Re-Up]
Keith Jarrett Trio - Standards Live (1986) {ECM 1317} [Re-Up]


Thanks to the original ripper