Subcategories

Kenny Burrell - Blue Lights, Volume 2 (1958) Japanese Reissue 2000, Remastered by RVG [Re-Up]

Posted By: Designol
Kenny Burrell - Blue Lights, Volume 2 (1958) Japanese Reissue 2000, Remastered by RVG [Re-Up]

Kenny Burrell - Blue Lights, Vol. 2 (1958) Japanese Reissue 2000, Remastered by RVG
EAC | FLAC | Tracks (Cue&Log) ~ 252 Mb | Mp3 (CBR320) ~ 117 Mb | Scans included
Label: Blue Note/Toshiba-EMI Ltd | # TOCJ-9184 | Time: 00:40:12
Genre: Bop, Hard Bop, Guitar Jazz

The second of two CD reissues of a jam session led by guitarist Kenny Burrell features the talented if forgotten trumpeter Louis Smith, both Junior Cook and Tina Brooks on tenors, pianist Bobby Timmons (Duke Jordan was on the first volume), bassist Sam Jones and drummer Art Blakey. The all-star group performs two standards ("Caravan" and the guitarist's feature on "Autumn in New York"), Sam Jones's "Chuckin'" and Burrell's "Rock Salt." This is excellent music that easily fits into the bop mainstream of the period.

Review by Scott Yanow, Allmusic.com

Kenny Burrell - Blue Lights, Volume 2 (1958) Japanese Reissue 2000, Remastered by RVG [Re-Up]



Performers:

Guitar – Kenny Burrell
Bass – Sam Jones
Drums – Art Blakey
Piano – Bobby Timmons (tracks: 1, 3), Duke Jordan (tracks: 2, 4)
Tenor Saxophone – Junior Cook (tracks: 1, 3, 4), Tina Brooks (tracks: 1, 3)
Trumpet – Louis Smith (2)

Remastered By [Digitally Remastered] – Rudy Van Gelder
Recorded: Manhattan Towers, New York City, NY, May 14, 1958.

Tracklist:

01. Rock Salt (11:20)
02. The Man I Love (06:43)
03. Chuckin' (12:10)
04. Phinupi (09:47)


Exact Audio Copy V1.1 from 23. June 2015

EAC extraction logfile from 24. March 2016, 22:29

Kenny Burrell / Blue Lights Volume 2

Used drive : HL-DT-STDVD+-RW GS30N Adapter: 1 ID: 0

Read mode : Secure
Utilize accurate stream : Yes
Defeat audio cache : Yes
Make use of C2 pointers : No

Read offset correction : 667
Overread into Lead-In and Lead-Out : No
Fill up missing offset samples with silence : Yes
Delete leading and trailing silent blocks : No
Null samples used in CRC calculations : Yes
Used interface : Native Win32 interface for Win NT & 2000
Gap handling : Appended to previous track

Used output format : User Defined Encoder
Selected bitrate : 1024 kBit/s
Quality : High
Add ID3 tag : No
Command line compressor : C:\Program Files (x86)\Exact Audio Copy\FLAC\FLAC.EXE
Additional command line options : -6 -V -T "ARTIST=%artist%" -T "TITLE=%title%" -T "ALBUM=%albumtitle%" -T "DATE=%year%" -T "TRACKNUMBER=%tracknr%" -T "GENRE=%genre%" -T "COMMENT=%comment%" -T "BAND=%albuminterpret%" -T "ALBUMARTIST=%albuminterpret%" -T "COMPOSER=%composer%" %haslyrics%–tag-from-file=LYRICS="%lyricsfile%"%haslyrics% -T "DISCNUMBER=%cdnumber%" -T "TOTALDISCS=%totalcds%" -T "TOTALTRACKS=%numtracks%" %hascover%–picture="%coverfile%"%hascover% %source% -o %dest%


TOC of the extracted CD

Track | Start | Length | Start sector | End sector
––––––––––––––––––––––––––––-
1 | 0:00.00 | 11:23.29 | 0 | 51253
2 | 11:23.29 | 6:47.16 | 51254 | 81794
3 | 18:10.45 | 12:13.40 | 81795 | 136809
4 | 30:24.10 | 9:47.29 | 136810 | 180863


Track 1

Filename D:\music\Kenny Burrell - Blue Lights Vol. 2\01. Kenny Burrell - Rock Salt.wav

Pre-gap length 0:00:02.00

Peak level 96.6 %
Extraction speed 3.4 X
Track quality 100.0 %
Test CRC DBC8CB3C
Copy CRC DBC8CB3C
Accurately ripped (confidence 3) [AFC545E9] (AR v2)
Copy OK

Track 2

Filename D:\music\Kenny Burrell - Blue Lights Vol. 2\02. Kenny Burrell - The Man I Love.wav

Pre-gap length 0:00:02.73

Peak level 95.6 %
Extraction speed 3.9 X
Track quality 100.0 %
Test CRC 28EE9EA6
Copy CRC 28EE9EA6
Accurately ripped (confidence 3) [455C608B] (AR v2)
Copy OK

Track 3

Filename D:\music\Kenny Burrell - Blue Lights Vol. 2\03. Kenny Burrell - Chuckin'.wav

Pre-gap length 0:00:03.46

Peak level 97.9 %
Extraction speed 4.7 X
Track quality 100.0 %
Test CRC 9523CF76
Copy CRC 9523CF76
Accurately ripped (confidence 3) [A21E6145] (AR v2)
Copy OK

Track 4

Filename D:\music\Kenny Burrell - Blue Lights Vol. 2\04. Kenny Burrell - Phinupi.wav

Pre-gap length 0:00:03.18

Peak level 97.9 %
Extraction speed 5.1 X
Track quality 100.0 %
Test CRC 1BE9261C
Copy CRC 1BE9261C
Accurately ripped (confidence 3) [333CF314] (AR v2)
Copy OK


All tracks accurately ripped

No errors occurred

End of status report

–– CUETools DB Plugin V2.1.6

[CTDB TOCID: tVlVj79bNgMVPGe7hnkas3Grn3I-] found
Submit result: tVlVj79bNgMVPGe7hnkas3Grn3I- has been confirmed
Track | CTDB Status
1 | (2/2) Accurately ripped
2 | (2/2) Accurately ripped
3 | (2/2) Accurately ripped
4 | (2/2) Accurately ripped


==== Log checksum 24AF2C5FDEE7E9DEC6232900DA9D94B1AFCBF096D94A8385DDE4BEECA07DCCE4 ====

foobar2000 1.2 / Dynamic Range Meter 1.1.1
log date: 2016-03-29 13:25:55

––––––––––––––––––––––––––––––––––––––––
Analyzed: Kenny Burrell / Blue Lights Volume 2
––––––––––––––––––––––––––––––––––––––––

DR Peak RMS Duration Track
––––––––––––––––––––––––––––––––––––––––
DR12 -0.29 dB -14.67 dB 11:23 01-Rock Salt
DR12 -0.39 dB -16.04 dB 6:47 02-The Man I Love
DR12 -0.18 dB -13.93 dB 12:14 03-Chuckin'
DR12 -0.18 dB -14.58 dB 9:47 04-Phinupi
––––––––––––––––––––––––––––––––––––––––

Number of tracks: 4
Official DR value: DR12

Samplerate: 44100 Hz
Channels: 2
Bits per sample: 16
Bitrate: 858 kbps
Codec: FLAC
================================================================================

Kenny Burrell - Blue Lights, Volume 2 (1958) Japanese Reissue 2000, Remastered by RVG [Re-Up]

Kenny Burrell - Blue Lights, Volume 2 (1958) Japanese Reissue 2000, Remastered by RVG [Re-Up]

All thanks to original releaser - measet

More interesting music in My Blog