Subcategories
Tags
Language
Tags

Larsen-Feiten Band - s/t//Full Moon (1980/1982) {2005 Wounded Bird}

Posted By: TestTickles
Larsen-Feiten Band - s/t//Full Moon (1980/1982) {2005 Wounded Bird}

Larsen-Feiten Band - s/t//Full Moon (1980/1982) {2005 Wounded Bird}
EAC Rip | FLAC with CUE and log | scans | 430 mb
MP3 CBR 320kbps | RAR | 176 mb
Genre: jazz rock, fusion

This is a 2-on-1 compact disc featuring the two albums by the Larsen-Feiten Band: the 1990 self-titled album and 1982's Full Moon. The latter was credited to Full Moon featuring Neil Larsen & Buzz Feiten. Both were originally released by Warner Bros. Records. This was remastered and reissued in 2005 by Wounded Bird.

Larsen-Feiten Band - s/t//Full Moon (1980/1982) {2005 Wounded Bird}

Larsen/Feiten Band (1980)
01. Who'll Be The Fool Tonight (4:13)
02. Danger Zone (5:04)
03. Further Notice (3:35)
04. Over (5:08)
05. She's Not In Love (4:42)
06. Morning Star (5:21)
07. Make It (4:29)
08. Aztec Legend (4:46)

Full Moon (1982)
09. Phantom Of The Footlights (4:28)
10. The Visitor (4:39)
11. Twilight Moon (3:58)
12. Sierra (4:36)
13. Brown Eyes (4:20)
14. Hero's Welcome (4:31)
15. Standing In Line (4:07)
16. Little Cowboys (3:58)

Exact Audio Copy V1.0 beta 3 from 29. August 2011

EAC extraction logfile from 12. November 2013, 09:52

Larsen-Feiten Band / s-t, Full Moon

Used drive : HL-DT-STDVDRAM GT51N Adapter: 0 ID: 1

Read mode : Secure
Utilize accurate stream : Yes
Defeat audio cache : Yes
Make use of C2 pointers : No

Read offset correction : 103
Overread into Lead-In and Lead-Out : No
Fill up missing offset samples with silence : Yes
Delete leading and trailing silent blocks : No
Null samples used in CRC calculations : Yes
Used interface : Native Win32 interface for Win NT & 2000
Gap handling : Appended to previous track

Used output format : User Defined Encoder
Selected bitrate : 1024 kBit/s
Quality : High
Add ID3 tag : No
Command line compressor : C:\Program Files (x86)\FLAC\flac.exe
Additional command line options : -8 -V -T "ARTIST=%artist%" -T "TITLE=%title%" -T "ALBUM=%albumtitle%" -T "DATE=%year%" -T "TRACKNUMBER=%tracknr%" -T "GENRE=%genre%" -T "PERFORMER=%albuminterpret%" -T "COMPOSER=%composer%" %haslyrics%–tag-from-file=LYRICS="%lyricsfile%"%haslyrics% -T "ALBUMARTIST=%albumartist%" -T "DISCNUMBER=%cdnumber%" -T "TOTALDISCS=%totalcds%" -T "TOTALTRACKS=%numtracks%" -T "COMMENT=%comment%" %source% -o %dest%

TOC of the extracted CD

Track | Start | Length | Start sector | End sector
––––––––––––––––––––––––––––-
1 | 0:00.00 | 4:12.50 | 0 | 18949
2 | 4:12.50 | 5:04.12 | 18950 | 41761
3 | 9:16.62 | 3:34.55 | 41762 | 57866
4 | 12:51.42 | 5:08.27 | 57867 | 80993
5 | 17:59.69 | 4:41.69 | 80994 | 102137
6 | 22:41.63 | 5:21.17 | 102138 | 126229
7 | 28:03.05 | 4:29.02 | 126230 | 146406
8 | 32:32.07 | 4:46.02 | 146407 | 167858
9 | 37:18.09 | 4:28.18 | 167859 | 187976
10 | 41:46.27 | 4:39.10 | 187977 | 208911
11 | 46:25.37 | 3:57.39 | 208912 | 226725
12 | 50:23.01 | 4:35.56 | 226726 | 247406
13 | 54:58.57 | 4:19.55 | 247407 | 266886
14 | 59:18.37 | 4:30.72 | 266887 | 287208
15 | 63:49.34 | 4:06.45 | 287209 | 305703
16 | 67:56.04 | 3:58.27 | 305704 | 323580

Track 1

Filename C:\cuntfist\FLAC\Larsen-Feiten Band - s-t, Full Moon (1980, 1982) [FLAC] {2005 Wounded Bird}\01 - Who'll Be The Fool Tonight.wav

Pre-gap length 0:00:02.00

Peak level 94.4 %
Extraction speed 2.5 X
Track quality 99.9 %
Test CRC B21A6F72
Copy CRC B21A6F72
Accurately ripped (confidence 7) [01C7E8E1] (AR v1)
Copy OK

Track 2

Filename C:\cuntfist\FLAC\Larsen-Feiten Band - s-t, Full Moon (1980, 1982) [FLAC] {2005 Wounded Bird}\02 - Danger Zone.wav

Peak level 94.4 %
Extraction speed 3.4 X
Track quality 100.0 %
Test CRC 97E5EBB6
Copy CRC 97E5EBB6
Accurately ripped (confidence 6) [2890CD09] (AR v1)
Copy OK

Track 3

Filename C:\cuntfist\FLAC\Larsen-Feiten Band - s-t, Full Moon (1980, 1982) [FLAC] {2005 Wounded Bird}\03 - Further Notice.wav

Peak level 94.4 %
Extraction speed 3.4 X
Track quality 100.0 %
Test CRC 71DB580B
Copy CRC 71DB580B
Accurately ripped (confidence 6) [C451BDE5] (AR v1)
Copy OK

Track 4

Filename C:\cuntfist\FLAC\Larsen-Feiten Band - s-t, Full Moon (1980, 1982) [FLAC] {2005 Wounded Bird}\04 - Over.wav

Peak level 94.4 %
Extraction speed 3.8 X
Track quality 100.0 %
Test CRC B30792E4
Copy CRC B30792E4
Accurately ripped (confidence 7) [61A2A7D4] (AR v1)
Copy OK

Track 5

Filename C:\cuntfist\FLAC\Larsen-Feiten Band - s-t, Full Moon (1980, 1982) [FLAC] {2005 Wounded Bird}\05 - She's Not In Love.wav

Peak level 94.4 %
Extraction speed 4.1 X
Track quality 100.0 %
Test CRC 61275A60
Copy CRC 61275A60
Accurately ripped (confidence 7) [E06287AA] (AR v1)
Copy OK

Track 6

Filename C:\cuntfist\FLAC\Larsen-Feiten Band - s-t, Full Moon (1980, 1982) [FLAC] {2005 Wounded Bird}\06 - Morning Star.wav

Peak level 94.4 %
Extraction speed 4.4 X
Track quality 100.0 %
Test CRC 539DFC4C
Copy CRC 539DFC4C
Accurately ripped (confidence 7) [893D7B67] (AR v1)
Copy OK

Track 7

Filename C:\cuntfist\FLAC\Larsen-Feiten Band - s-t, Full Moon (1980, 1982) [FLAC] {2005 Wounded Bird}\07 - Make It.wav

Peak level 94.4 %
Extraction speed 4.6 X
Track quality 100.0 %
Test CRC FF7B658E
Copy CRC FF7B658E
Accurately ripped (confidence 7) [2566DAB2] (AR v1)
Copy OK

Track 8

Filename C:\cuntfist\FLAC\Larsen-Feiten Band - s-t, Full Moon (1980, 1982) [FLAC] {2005 Wounded Bird}\08 - Aztec Legend.wav

Peak level 94.4 %
Extraction speed 4.8 X
Track quality 100.0 %
Test CRC AAEE6F34
Copy CRC AAEE6F34
Accurately ripped (confidence 7) [F3D690D6] (AR v1)
Copy OK

Track 9

Filename C:\cuntfist\FLAC\Larsen-Feiten Band - s-t, Full Moon (1980, 1982) [FLAC] {2005 Wounded Bird}\09 - Phantom Of The Footlight.wav

Peak level 94.4 %
Extraction speed 4.1 X
Track quality 99.9 %
Test CRC 415C5BEA
Copy CRC 415C5BEA
Accurately ripped (confidence 7) [E74B832C] (AR v1)
Copy OK

Track 10

Filename C:\cuntfist\FLAC\Larsen-Feiten Band - s-t, Full Moon (1980, 1982) [FLAC] {2005 Wounded Bird}\10 - The Visitor.wav

Peak level 94.4 %
Extraction speed 5.1 X
Track quality 100.0 %
Test CRC 4E74A096
Copy CRC 4E74A096
Accurately ripped (confidence 7) [AE10DC15] (AR v1)
Copy OK

Track 11

Filename C:\cuntfist\FLAC\Larsen-Feiten Band - s-t, Full Moon (1980, 1982) [FLAC] {2005 Wounded Bird}\11 - Twilight Moon.wav

Peak level 94.4 %
Extraction speed 5.2 X
Track quality 100.0 %
Test CRC 862D9152
Copy CRC 862D9152
Accurately ripped (confidence 7) [5A495FDC] (AR v1)
Copy OK

Track 12

Filename C:\cuntfist\FLAC\Larsen-Feiten Band - s-t, Full Moon (1980, 1982) [FLAC] {2005 Wounded Bird}\12 - Sierra.wav

Peak level 94.4 %
Extraction speed 5.3 X
Track quality 100.0 %
Test CRC 07B53441
Copy CRC 07B53441
Accurately ripped (confidence 7) [01DABBC4] (AR v1)
Copy OK

Track 13

Filename C:\cuntfist\FLAC\Larsen-Feiten Band - s-t, Full Moon (1980, 1982) [FLAC] {2005 Wounded Bird}\13 - Brown Eyes.wav

Peak level 94.4 %
Extraction speed 5.5 X
Track quality 100.0 %
Test CRC AE5090A6
Copy CRC AE5090A6
Accurately ripped (confidence 7) [E9F449C8] (AR v1)
Copy OK

Track 14

Filename C:\cuntfist\FLAC\Larsen-Feiten Band - s-t, Full Moon (1980, 1982) [FLAC] {2005 Wounded Bird}\14 - Hero's Welcome.wav

Peak level 94.4 %
Extraction speed 5.7 X
Track quality 100.0 %
Test CRC 2662C051
Copy CRC 2662C051
Accurately ripped (confidence 7) [7A757810] (AR v1)
Copy OK

Track 15

Filename C:\cuntfist\FLAC\Larsen-Feiten Band - s-t, Full Moon (1980, 1982) [FLAC] {2005 Wounded Bird}\15 - Standing In Line.wav

Peak level 94.4 %
Extraction speed 5.8 X
Track quality 100.0 %
Test CRC DC9ED7FA
Copy CRC DC9ED7FA
Accurately ripped (confidence 7) [FEB0A8B2] (AR v1)
Copy OK

Track 16

Filename C:\cuntfist\FLAC\Larsen-Feiten Band - s-t, Full Moon (1980, 1982) [FLAC] {2005 Wounded Bird}\16 - Little Cowboys.wav

Peak level 94.4 %
Extraction speed 4.7 X
Track quality 99.9 %
Test CRC C5FC1502
Copy CRC C5FC1502
Accurately ripped (confidence 7) [ABE0CB8D] (AR v1)
Copy OK

All tracks accurately ripped

No errors occurred

End of status report

–– CUETools DB Plugin V2.1.3

[CTDB TOCID: HlSJa6u9cMx9Npko0uXZg4gojPc-] disk not present in database, Submit result: HlSJa6u9cMx9Npko0uXZg4gojPc- has been uploaded

==== Log checksum CF826BD7BB4F8D51657EB23987731B141688CCE1B61D68F5CDB7DA3D27AA4BF6 ====


Larsen-Feiten Band - s/t//Full Moon (1980/1982) {2005 Wounded Bird}


Thank you to the original uploader.