Tags
Language
Tags

L.V. Johnson - We Belong Together (1981) {2019 Everland}

Posted By:
L.V. Johnson - We Belong Together (1981) {2019 Everland}

L.V. Johnson - We Belong Together (1981) {2019 Everland}
EAC Rip | FLAC with CUE and log | scans | 222 mb
MP3 CBR 320kbps | RAR | 85 mb
Genre: R&B, soul

We Belong Together is the 1981 debut album from Chicago vocalist/guitarist L.V. Johnson. This is from the 2019 remaster, reissued by the Everland label

1. We Belong Together (4:00)
2. I Love You I Want You (3:56)
3. Try A Little Tenderness (5:31)
4. I'm A Lucky Guy (4:30)
5. I Don't Really Care (5:13)
6. The Whole Town's Laughing (5:46)
7. Dancing Girl (4:17)
8. Danny Boy (5:16)

Exact Audio Copy V1.6 from 23. October 2020

EAC extraction logfile from 5. June 2021, 11:16

L.V. Johnson / We Belong Together

Used drive : Optiarc DVD RW AD-5290S+ Adapter: 1 ID: 1

Read mode : Secure
Utilize accurate stream : Yes
Defeat audio cache : Yes
Make use of C2 pointers : No

Read offset correction : 6
Overread into Lead-In and Lead-Out : No
Fill up missing offset samples with silence : Yes
Delete leading and trailing silent blocks : No
Null samples used in CRC calculations : Yes
Used interface : Native Win32 interface for Win NT & 2000
Gap handling : Appended to previous track

Used output format : User Defined Encoder
Selected bitrate : 1024 kBit/s
Quality : High
Add ID3 tag : No
Command line compressor : C:\Program Files (x86)\Exact Audio Copy\Flac\flac.exe
Additional command line options : -8 -e -p -V -T "ARTIST=%artist%" -T "TITLE=%title%" -T "ALBUM=%albumtitle%" -T "DATE=%year%" -T "TRACKNUMBER=%tracknr%" -T "GENRE=%genre%" -T "PERFORMER=%albuminterpret%" -T "COMPOSER=%composer%" %haslyrics%–tag-from-file=LYRICS="%lyricsfile%"%haslyrics% -T "ALBUMARTIST=%albumartist%" -T "DISCNUMBER=%cdnumber%" -T "TOTALDISCS=%totalcds%" -T "TOTALTRACKS=%numtracks%" -T "COMMENT=%comment%" %source% -o %dest%

TOC of the extracted CD

Track | Start | Length | Start sector | End sector
––––––––––––––––––––––––––––-
1 | 0:00.00 | 4:01.67 | 0 | 18141
2 | 4:01.67 | 4:00.44 | 18142 | 36185
3 | 8:02.36 | 5:36.45 | 36186 | 61430
4 | 13:39.06 | 4:38.47 | 61431 | 82327
5 | 18:17.53 | 5:16.28 | 82328 | 106055
6 | 23:34.06 | 5:49.06 | 106056 | 132236
7 | 29:23.12 | 4:22.35 | 132237 | 151921
8 | 33:45.47 | 3:55.03 | 151922 | 169549

Track 1

C:\cuntfist\FLAC\L.V. Johnson - We Belong Together (1981) [FLAC] {2019 Everland}\01 - We Belong Together.wav

Pre-gap length 0:00:02.00

Peak level 96.0 %
Extraction speed 2.6 X
Track quality 100.0 %
Test CRC 8974FAC7
Copy CRC 8974FAC7
Accurately ripped (confidence 3) [6AD93C13] (AR v2)
Copy OK

Track 2

C:\cuntfist\FLAC\L.V. Johnson - We Belong Together (1981) [FLAC] {2019 Everland}\02 - I Love You I Want You.wav

Peak level 96.0 %
Extraction speed 2.9 X
Track quality 100.0 %
Test CRC A9FE1B46
Copy CRC A9FE1B46
Accurately ripped (confidence 3) [FE3D4191] (AR v2)
Copy OK

Track 3

C:\cuntfist\FLAC\L.V. Johnson - We Belong Together (1981) [FLAC] {2019 Everland}\03 - Try A Little Tenderness.wav

Peak level 96.0 %
Extraction speed 3.4 X
Track quality 100.0 %
Test CRC F381399C
Copy CRC F381399C
Accurately ripped (confidence 3) [101D6A23] (AR v2)
Copy OK

Track 4

C:\cuntfist\FLAC\L.V. Johnson - We Belong Together (1981) [FLAC] {2019 Everland}\04 - I'm A Lucky Guy.wav

Peak level 96.0 %
Extraction speed 3.6 X
Track quality 100.0 %
Test CRC 2D0F2868
Copy CRC 2D0F2868
Accurately ripped (confidence 3) [CEB58D87] (AR v2)
Copy OK

Track 5

C:\cuntfist\FLAC\L.V. Johnson - We Belong Together (1981) [FLAC] {2019 Everland}\05 - I Don't Really Care.wav

Peak level 96.0 %
Extraction speed 3.4 X
Track quality 99.9 %
Test CRC 28E74464
Copy CRC 28E74464
Accurately ripped (confidence 3) [1A3A56D4] (AR v2)
Copy OK

Track 6

C:\cuntfist\FLAC\L.V. Johnson - We Belong Together (1981) [FLAC] {2019 Everland}\06 - The Whole Town's Laughing.wav

Peak level 96.0 %
Extraction speed 4.2 X
Track quality 100.0 %
Test CRC 88AFD2C4
Copy CRC 88AFD2C4
Accurately ripped (confidence 3) [B426F644] (AR v2)
Copy OK

Track 7

C:\cuntfist\FLAC\L.V. Johnson - We Belong Together (1981) [FLAC] {2019 Everland}\07 - Dancing Girl.wav

Peak level 96.0 %
Extraction speed 4.3 X
Track quality 100.0 %
Test CRC FA2CF87A
Copy CRC FA2CF87A
Accurately ripped (confidence 3) [AC69A1A4] (AR v2)
Copy OK

Track 8

C:\cuntfist\FLAC\L.V. Johnson - We Belong Together (1981) [FLAC] {2019 Everland}\08 - Danny Boy.wav

Peak level 96.0 %
Extraction speed 3.7 X
Track quality 99.9 %
Test CRC 194EC8AA
Copy CRC 194EC8AA
Accurately ripped (confidence 3) [F86DD7B0] (AR v2)
Copy OK

All tracks accurately ripped

No errors occurred

End of status report

–– CUETools DB Plugin V2.1.6

[CTDB TOCID: D6v6FgJrNDyOw45GRxe0ImmK6aY-] found
Submit result: D6v6FgJrNDyOw45GRxe0ImmK6aY- has been confirmed
Track | CTDB Status
1 | (2/2) Accurately ripped
2 | (2/2) Accurately ripped
3 | (2/2) Accurately ripped
4 | (2/2) Accurately ripped
5 | (2/2) Accurately ripped
6 | (2/2) Accurately ripped
7 | (2/2) Accurately ripped
8 | (2/2) Accurately ripped

==== Log checksum F88AC2FDBEE045721426EB1E45333B3F163CEDE550268460676BEE9FFC57A73E ====


L.V. Johnson - We Belong Together (1981) {2019 Everland}


Thank you to the original uploader.