Subcategories

Larsen Rupin - Procès Verbal (2007)

Posted By: popsakov
Larsen Rupin - Procès Verbal (2007)

Larsen Rupin - Procès Verbal (2007)
EAC Rip | FLAC (Tracks) + Cue + m3u + Log ~ 471 Mb | MP3 CBR320 ~ 157 Mb
Full Scans ~ 155 Mb | 01:04:16 | RAR 5% Recovery
RIO / Progressive Rock / Avant-Prog / Jazz Rock / Experimental
© Larsen Rupin #LR 003

Larsen Rupin is a Swiss avant-jazz quartet that was founded in 1990 in Neuchâtel. This unique quartet is formed of Daniel Spanhi (drums) who was also a member of Débile Menthol, Nimal and L'Ensemble rayé, Gilbert Ummel (saxophone, vocals), André Schenk (bass) and Julien Baillod (guitars), who joined the band in 2008, to replace Pier-Luigi Pision, their first guitarist. Larsen Rupin released three albums. Their first album, A Ban, came out in 1992 and featured only three members of the actual band (Spahni/Ummel/Schenk). Their second album was released in 2003 and named Contredanses. On this album, you can hear a great dark, avant-progressive sound. The third album is called Procès Verbal and was released in 2007, as a quartet with Pisino on guitars joining the trio of the first two albums. Pisino was replaced in 2008 by Julien Baillod. With this new line-up, they still have not released an album, but we can expect something good, as all of their other material. They have recently been experimenting on mixes of pop, rock, blues and jazz.

***************

Track List:

01. La Mante [4:44]
02. L'Emmerdeur [5:15]
03. Le Mérinos [5:39]
04. Surènchere [4:21]
05. Stylopanne [3:43]
06. Les Coulisses De L'exploit [4:39]
07. Plan Fixe [4:35]
08. Chanson Muette [3:54]
09. Sub-Version [3:40]
10. Femme Fatale [8:39]
Bonus:
11. L'Emmerdeux [5:16]
12. La Menthe [4:57]
13. L'Emmerdub [5:17]

Personnel:
Daniel Spahni - Drums
Gilbert Ummel - Sax, Vocals
André Schenk - Bass
Pier-Luigi Pisino - Guitar
Samuel Blaser - Trombone
DJ Soon - Scratch
Internal Dread - Mix

Exact Audio Copy V1.0 beta 4 from 7. December 2014

EAC extraction logfile from 15. January 2020, 14:25

Larsen Rupin / Procès Verbal

Used drive : ATAPI iHAS124 E Adapter: 1 ID: 0

Read mode : Secure
Utilize accurate stream : Yes
Defeat audio cache : Yes
Make use of C2 pointers : No

Read offset correction : 6
Overread into Lead-In and Lead-Out : No
Fill up missing offset samples with silence : Yes
Delete leading and trailing silent blocks : No
Null samples used in CRC calculations : Yes
Used interface : Native Win32 interface for Win NT & 2000
Gap handling : Appended to previous track

Used output format : User Defined Encoder
Selected bitrate : 768 kBit/s
Quality : High
Add ID3 tag : No
Command line compressor : C:\Program Files (x86)\flac-1.3.2-win\win64\flac.exe
Additional command line options : -8 -V -T "ARTIST=%artist%" -T "TITLE=%title%" -T "ALBUM=%albumtitle%" -T "DATE=%year%" -T "TRACKNUMBER=%tracknr%" -T "GENRE=%genre%" -T "COMMENT=ripped by vp_sunset" %source% -o %dest%


TOC of the extracted CD

Track | Start | Length | Start sector | End sector
––––––––––––––––––––––––––––-
1 | 0:00.00 | 4:44.41 | 0 | 21340
2 | 4:44.41 | 5:15.44 | 21341 | 45009
3 | 10:00.10 | 5:39.44 | 45010 | 70478
4 | 15:39.54 | 4:21.63 | 70479 | 90116
5 | 20:01.42 | 3:43.47 | 90117 | 106888
6 | 23:45.14 | 4:39.24 | 106889 | 127837
7 | 28:24.38 | 4:35.65 | 127838 | 148527
8 | 33:00.28 | 3:54.17 | 148528 | 166094
9 | 36:54.45 | 3:40.30 | 166095 | 182624
10 | 40:35.00 | 8:39.65 | 182625 | 221614
11 | 49:14.65 | 5:16.36 | 221615 | 245350
12 | 54:31.26 | 4:57.38 | 245351 | 267663
13 | 59:28.64 | 5:16.72 | 267664 | 291435


Track 1

Filename C:\_EAC\01. La Mante.wav

Pre-gap length 0:00:02.00

Peak level 99.9 %
Extraction speed 1.5 X
Track quality 99.9 %
Test CRC 859C5A96
Copy CRC 859C5A96
Track not present in AccurateRip database
Copy OK

Track 2

Filename C:\_EAC\02. L'Emmerdeur.wav

Pre-gap length 0:00:02.00

Peak level 99.9 %
Extraction speed 2.2 X
Track quality 100.0 %
Test CRC D8812BB5
Copy CRC D8812BB5
Track not present in AccurateRip database
Copy OK

Track 3

Filename C:\_EAC\03. Le Mérinos.wav

Pre-gap length 0:00:02.00

Peak level 99.9 %
Extraction speed 2.0 X
Track quality 99.9 %
Test CRC 8659B52D
Copy CRC 8659B52D
Track not present in AccurateRip database
Copy OK

Track 4

Filename C:\_EAC\04. Surènchere.wav

Pre-gap length 0:00:02.00

Peak level 99.9 %
Extraction speed 2.6 X
Track quality 100.0 %
Test CRC 6A578F12
Copy CRC 6A578F12
Track not present in AccurateRip database
Copy OK

Track 5

Filename C:\_EAC\05. Stylopanne.wav

Pre-gap length 0:00:02.00

Peak level 99.9 %
Extraction speed 2.7 X
Track quality 100.0 %
Test CRC 1247B5AC
Copy CRC 1247B5AC
Track not present in AccurateRip database
Copy OK

Track 6

Filename C:\_EAC\06. Les Coulisses De L'exploit.wav

Pre-gap length 0:00:02.00

Peak level 99.9 %
Extraction speed 2.9 X
Track quality 100.0 %
Test CRC C839D0F6
Copy CRC C839D0F6
Track not present in AccurateRip database
Copy OK

Track 7

Filename C:\_EAC\07. Plan Fixe.wav

Pre-gap length 0:00:02.00

Peak level 99.9 %
Extraction speed 2.3 X
Track quality 99.9 %
Test CRC 47E27967
Copy CRC 47E27967
Track not present in AccurateRip database
Copy OK

Track 8

Filename C:\_EAC\08. Chanson Muette.wav

Pre-gap length 0:00:02.00

Peak level 99.9 %
Extraction speed 3.1 X
Track quality 100.0 %
Test CRC DC7291D7
Copy CRC DC7291D7
Track not present in AccurateRip database
Copy OK

Track 9

Filename C:\_EAC\09. Sub-Version.wav

Pre-gap length 0:00:01.98

Peak level 99.9 %
Extraction speed 2.3 X
Track quality 99.9 %
Test CRC 3191E79E
Copy CRC 3191E79E
Track not present in AccurateRip database
Copy OK

Track 10

Filename C:\_EAC\10. Femme Fatale.wav

Pre-gap length 0:00:02.00

Peak level 99.9 %
Extraction speed 3.2 X
Track quality 99.9 %
Test CRC 48781A39
Copy CRC 48781A39
Track not present in AccurateRip database
Copy OK

Track 11

Filename C:\_EAC\11. L'Emmerdeux (bonus track).wav

Pre-gap length 0:00:08.00

Peak level 99.9 %
Extraction speed 3.7 X
Track quality 100.0 %
Test CRC B5E79DFA
Copy CRC B5E79DFA
Track not present in AccurateRip database
Copy OK

Track 12

Filename C:\_EAC\12. La Menthe (bonus track).wav

Pre-gap length 0:00:02.00

Peak level 99.9 %
Extraction speed 3.8 X
Track quality 100.0 %
Test CRC 07559438
Copy CRC 07559438
Track not present in AccurateRip database
Copy OK

Track 13

Filename C:\_EAC\13. L'Emmerdub (bonus track).wav

Pre-gap length 0:00:02.00

Peak level 99.9 %
Extraction speed 4.0 X
Track quality 100.0 %
Test CRC FD5C1A5C
Copy CRC FD5C1A5C
Track not present in AccurateRip database
Copy OK


None of the tracks are present in the AccurateRip database

No errors occurred

End of status report

–– CUETools DB Plugin V2.1.4

[CTDB TOCID: UJdLJOx5UoIW_4Ecx6O1S__s2j4-] found
Submit result: UJdLJOx5UoIW_4Ecx6O1S__s2j4- has been confirmed
Track | CTDB Status
1 | (1/1) Accurately ripped
2 | (1/1) Accurately ripped
3 | (1/1) Accurately ripped
4 | (1/1) Accurately ripped
5 | (1/1) Accurately ripped
6 | (1/1) Accurately ripped
7 | (1/1) Accurately ripped
8 | (1/1) Accurately ripped
9 | (1/1) Accurately ripped
10 | (1/1) Accurately ripped
11 | (1/1) Accurately ripped
12 | (1/1) Accurately ripped
13 | (1/1) Accurately ripped


==== Log checksum 2FEDC9E9FF2E2CE5D70D209D70766652963159064A282851CAEE4419EBA58B88 ====

All thanks go to vp_sunset

>>> My Blog <<<

DOWNLOAD: