Tags
Language
Tags

Laurent Martin - Charles-Valentin Alkan: Etudes Opp. 12 & 76; Le preux; Le chemin de fer (1993)

Posted By: ArlegZ
Laurent Martin - Charles-Valentin Alkan: Etudes Opp. 12 & 76; Le preux; Le chemin de fer (1993)

Laurent Martin - Charles-Valentin Alkan: Etudes Opp. 12 & 76; Le preux; Le chemin de fer (1993)
EAC | FLAC | Image (Cue & Log) ~ 177 Mb | Total time: 52:19 | Scans included
Classical | Label: Marco Polo / Naxos | 8.223500 | Recorded: 1990

In 1837 Alkan published a series of twelve pieces, Trois études de bravoure or Improvisations, Op. 12, Trois andantes romantiques, Op. 13, Trois morceaux dans le genre pathétique, Op. 15 and Trois études de bravoure (Scherzi), Op.16. These twelve piano pieces were issued in four volumes under the general title Douze Caprices. The studies that form the first volume had the earlier title Improvisations dans le style brillant, aptly descriptive. The first of the three, with its leaping octaves and sudden modulations, opens the door to a new world, technically and musically. It is followed by a D flat major Allegretto, initially a gentle contrast, although it increases in intensity, before the wistful ending over a sustained pedal-point. The Improvisations end with a B minor March, transforming what might otherwise have seemed trite thematic material into something much more imposing.
Le preux, Op. 17, The Valiant Knight, was published in 1844, and is again a bravura concert study, offering technical challenges to the performer, something suggested already in the choice of title, with pianist as champion. Le chemin de fer, Op. 27, The Railway, was also published in 1844,celebrating in musical terms a railway journey, a relative novelty of the period and something that was to provide material over the years for a number of other composers, intrigued by the rhythm of the machine and the whistle of the engine. Railway journeys of this kind presented possible dangers, and of these Alkan is well aware, as the train gathers by speed, before coming to a halt in safety.
The Trois grandes études, Op. 76, first appeared in 1838, although they were subsequently given the opus number of a later period. The first of these formidable studies is an A flat Fantaisie for left hand alone. An introduction is developed at an increased speed, leading to an extended final section, based on a sinister theme announced in lower register octaves. The second study, a D major Introduction, variations et finale for the right hand alone, makes still greater technical demands. The opening is in the form of a solemn introduction, with just the suggestion of a well known Schubert song in its melodic contour. The gentle theme, in A major, is followed by variations that explore changes of key and texture. The gentle staccato of the first leads to a contrapuntal F major second variation, an elaborate third in C major and a fourth of astonishing virtuosity, the final variation restoring the original key of A major, before the histrionic D major Finale. Both hands reunite in the third study in C minor, an extended rondo that presses forward with the motor impetus of a rapid toccata.

Laurent Martin
Born in Lyons, Laurent Martin was a pupil of Joseph Benvenuti and Monique Haas at the Paris Conservatoire, later studying with Pierre Sancan and winning distinction in a number of international piano competitions. In 1973 he won the Maria Canals Prize in Barcelona, thereafter involving himself in chamber music and in a solo career. In addition to standard recital and concerto repertoire Laurent Martin has also paid considerable attention to unjustly neglected piano music of the 19th century by George Onslow, Alkan, Alexis de Castillon, and, from the present century, Federico Mompou. In 1988 Valéry Giscard d'Estaing bestowed on him the Auvergnat de l'année prize for his promotion of the music of George Onslow and for the creation of the Concerts de Vollore (1978) and Piano à Riom Festivals (1987).

Performer:
Laurent Martin, piano

Track List:
3 etudes de bravoure, Op. 12
01. I. Prestissimo
02. II. Allegretto
03. III. Allegro marziale
Le preux (Etude de Concert), Op. 17
04. Le preux (Etude de Concert), Op. 17
Le chemin de fer, Op. 27
05. Le chemin de fer, Op. 27
3 grandes études, Op. 76
06. I. Main gauche
07. II. Main droite
08. III. Mains réunies


Exact Audio Copy V1.3 from 2. September 2016

EAC extraction logfile from 30. July 2019, 11:06

Laurent Martin / Alkan - Etudes

Used drive : HL-DT-STDVDRAM GP65NW60 Adapter: 1 ID: 0

Read mode : Secure
Utilize accurate stream : Yes
Defeat audio cache : Yes
Make use of C2 pointers : No

Read offset correction : 6
Overread into Lead-In and Lead-Out : No
Fill up missing offset samples with silence : Yes
Delete leading and trailing silent blocks : No
Null samples used in CRC calculations : Yes
Used interface : Native Win32 interface for Win NT & 2000

Used output format : User Defined Encoder
Selected bitrate : 1024 kBit/s
Quality : High
Add ID3 tag : No
Command line compressor : C:\Program Files (x86)\Exact Audio Copy\FLAC\FLAC.EXE
Additional command line options : -6 -V -T "ARTIST=%artist%" -T "TITLE=%title%" -T "ALBUM=%albumtitle%" -T "DATE=%year%" -T "TRACKNUMBER=%tracknr%" -T "GENRE=%genre%" -T "COMMENT=%comment%" -T "BAND=%albuminterpret%" -T "ALBUMARTIST=%albuminterpret%" -T "COMPOSER=%composer%" %haslyrics%–tag-from-file=LYRICS="%lyricsfile%"%haslyrics% -T "DISCNUMBER=%cdnumber%" -T "TOTALDISCS=%totalcds%" -T "TOTALTRACKS=%numtracks%" %hascover%–picture="%coverfile%"%hascover% %source% -o %dest%


TOC of the extracted CD

Track | Start | Length | Start sector | End sector
––––––––––––––––––––––––––––-
1 | 0:00.00 | 2:05.25 | 0 | 9399
2 | 2:05.25 | 3:45.00 | 9400 | 26274
3 | 5:50.25 | 3:25.00 | 26275 | 41649
4 | 9:15.25 | 7:45.00 | 41650 | 76524
5 | 17:00.25 | 5:00.00 | 76525 | 99024
6 | 22:00.25 | 9:15.00 | 99025 | 140649
7 | 31:15.25 | 15:57.00 | 140650 | 212424
8 | 47:12.25 | 5:08.05 | 212425 | 235529


Range status and errors

Selected range

Filename C:\Users\Grant\Desktop\Laurent Martin - Alkan - Etudes.wav

Peak level 93.5 %
Extraction speed 1.8 X
Range quality 99.9 %
Test CRC 882FC4F3
Copy CRC 882FC4F3
Copy OK

No errors occurred


AccurateRip summary

Track 1 accurately ripped (confidence 3) [F45C56EB] (AR v2)
Track 2 accurately ripped (confidence 3) [B2BF94C8] (AR v2)
Track 3 accurately ripped (confidence 3) [DC59FCC4] (AR v2)
Track 4 accurately ripped (confidence 3) [5C11BA3A] (AR v2)
Track 5 accurately ripped (confidence 3) [06A094F4] (AR v2)
Track 6 accurately ripped (confidence 3) [40E233D3] (AR v2)
Track 7 accurately ripped (confidence 3) [15D52482] (AR v2)
Track 8 accurately ripped (confidence 3) [945F252E] (AR v2)

All tracks accurately ripped

End of status report

–– CUETools DB Plugin V2.1.6

[CTDB TOCID: YF_uxiQ7OTvj2NXATn2ulRXBrnM-] found
Submit result: YF_uxiQ7OTvj2NXATn2ulRXBrnM- has been confirmed
Track | CTDB Status
1 | (4/4) Accurately ripped
2 | (4/4) Accurately ripped
3 | (4/4) Accurately ripped
4 | (4/4) Accurately ripped
5 | (4/4) Accurately ripped
6 | (4/4) Accurately ripped
7 | (4/4) Accurately ripped
8 | (4/4) Accurately ripped


==== Log checksum DE3256A0B8D6EF56A464C6D1C360296D3C6EAD8620BAD0B21BC7E011F6B64CEA ====

Laurent Martin - Charles-Valentin Alkan: Etudes Opp. 12 & 76; Le preux; Le chemin de fer (1993)

Thanks to the original releaser