Tags
Language
Tags

Lebowski - Cinematic (2010)

Posted By: popsakov
Lebowski - Cinematic (2010)

Lebowski - Cinematic (2010)
EAC Rip | FLAC (Img) + Cue + Log ~ 489 Mb | MP3 CBR320 ~ 201 Mb
Full Scans | RAR 5% Recovery
Art Rock, Progressive Rock | © 2010 Lebowski #CD001

Lebowski – A band founded in 2002, playing a wide spectrum of progressive music. On the debut album in 2010, listener gets to experience the tunes along the lines of artistic rock, motion pictures music, experimental and improvisation, all in harmonized integrity.

“Cinematic” is music for a non-existent film. From a theme aspect we can intrepidly consider it as a concept album, dedicated to the ‘big figures’ of the polish and world cinema.

What comes to the music – the CD is very compact, enriched with dynamic patterns, creating a self-collage. Like a picture of a good director. Lebowski holds listeners in tension, changing the moods, playing according to emotions. Complex and multidimensional compositions, are enabling a surprising and dynamic plot. The entirety is completed with rich instrumental use and the whole ensemble is an interesting arrangement, where the music isn’t held from being in some cases aesthetic, modest and soft.

Lyrics for the “Cinematic” are original quotes adopted from the classical polish and international films.

The idea for an album that we could possibly record and release at our own expense was conceived as early as at the beginning of 2005. The initial plan was relatively simple – fast recording in a non-commercial studio, brief sound mixing and the album release. However, the deeper we went into the idea, the more we listened to our ‘cinema-songs’, the more we discovered about the complexities of sound production and the potential of the equipment at our disposal, the more elaborate our project would become; our expectations inevitably grew bigger and bigger rendering the ‘grand finale’ a thing of unspecified future.

The rhythm section and main keyboards were recorded in a rehearsal room; then we moved to one of our member’s flat which, unexpectedly, for almost two years became a sort of low-budget recording studio.

Despite modest means and the fact that the skills required as well as the knowledge needed to accomplish the aim were by no means painlessly gained in the midst of frenzy labour, we did our best to make Cinematic a coherent, well-sounding and rather exceptional album.

It is up to you to decide whether we have been successful.

CINEMATIC is the culmination of our musical adventure as a group; it crowns a certain phase in the evolutionary way of four musicians and friends. As soon as it dawned on us how style-cramping the convention of a typical rock song is, we naturally drifted towards more sophisticated forms, leaving ‘fossilized’ patterns behind.

Vocals gave way to the sounds of instruments; instead, samples, effects and voices abounded.

More often than not people would pigeonhole Lebowski’s pieces as film music. Our sounds became a soundtrack of a non-existing motion picture.

Cinematic was born.

We dedicate this album to the notable figures of the Polish cinematography:
Tadeusz Łomnicki
Wojciech Jerzy Has
Zbigniew Cybulski
Zdzisław Maklakiewicz
Leon Niemczyk

Lebowski - Cinematic (2010)

We used the following movie quotes in our album:
“Gangsterzy i filantropi” (1962) on “Trip to Doha” (Odtwórz: ),
“Rękopis znaleziony w Saragossie” (1964) on “Cinematic” (Odtwórz: ),
“Hydrozagadka” (1970) on “Iceland” (Odtwórz: ),
“Bariera” (1966) on “The Storyteller (Svensson)” (Odtwórz: ).
~ lebowski.pl
Lebowski - Cinematic (2010)


***************

Lebowski - Cinematic (2010)

Track List:

01. Trip To Doha [5:42]
02. 137 Sec. [7:13]
03. Cinematic [7:43]
04. Old British Spy Movie [5:11]
05. Iceland [7:13]
06. Encore [6:08]
07. Aperitif For Breakfast (O.M.R.J.) [6:08]
08. Spiritual Machine [6:56]
09. The Storyteller (Svensson) [6:38]
10. Human Error [7:58]

Personnel:
Marcin Grzegorczyk - guitars
Marcin Łuczaj - keyboards
Marek Żak - bass
Krzysztof Pakuła - drums

Guest:
Katarzyna Dziubak - vocal, violin

Exact Audio Copy V1.0 beta 3 from 29. August 2011

EAC extraction logfile from 7. January 2013, 14:37

Lebowski / Cinematic

Used drive : ASUS DRW-24B1LT Adapter: 4 ID: 0

Read mode : Secure
Utilize accurate stream : Yes
Defeat audio cache : Yes
Make use of C2 pointers : No

Read offset correction : 6
Overread into Lead-In and Lead-Out : No
Fill up missing offset samples with silence : Yes
Delete leading and trailing silent blocks : No
Null samples used in CRC calculations : Yes
Used interface : Native Win32 interface for Win NT & 2000

Used output format : User Defined Encoder
Selected bitrate : 1024 kBit/s
Quality : High
Add ID3 tag : Yes
Command line compressor : C:\Program Files (x86)\FLAC\flac.exe
Additional command line options : -6 -V -T "ARTIST=%artist%" -T "TITLE=%title%" -T "ALBUM=%albumtitle%" -T "DATE=%year%" -T "TRACKNUMBER=%tracknr%" -T "GENRE=%genre%" -T "COMMENT=%comment%" %source% -o %dest%


TOC of the extracted CD

Track | Start | Length | Start sector | End sector
––––––––––––––––––––––––––––-
1 | 0:00.00 | 5:42.03 | 0 | 25652
2 | 5:42.03 | 7:12.47 | 25653 | 58099
3 | 12:54.50 | 7:42.60 | 58100 | 92809
4 | 20:37.35 | 5:11.17 | 92810 | 116151
5 | 25:48.52 | 7:12.67 | 116152 | 148618
6 | 33:01.44 | 6:07.49 | 148619 | 176192
7 | 39:09.18 | 6:07.67 | 176193 | 203784
8 | 45:17.10 | 6:56.05 | 203785 | 234989
9 | 52:13.15 | 6:38.11 | 234990 | 264850
10 | 58:51.26 | 7:58.20 | 264851 | 300720


Range status and errors

Selected range

Filename Y:\EAC\wurensh\Lebowski\Lebowski - Cinematic.wav

Peak level 100.0 %
Extraction speed 3.6 X
Range quality 100.0 %
Test CRC F6AB1D83
Copy CRC F6AB1D83
Copy OK

No errors occurred


AccurateRip summary

Track 1 accurately ripped (confidence 2) [9675CC17] (AR v2)
Track 2 accurately ripped (confidence 2) [5712CD5D] (AR v2)
Track 3 accurately ripped (confidence 2) [69A4817E] (AR v2)
Track 4 accurately ripped (confidence 2) [C1249D9E] (AR v2)
Track 5 accurately ripped (confidence 2) [8BEF93AB] (AR v2)
Track 6 accurately ripped (confidence 2) [85BF592F] (AR v2)
Track 7 accurately ripped (confidence 2) [D0291A68] (AR v2)
Track 8 accurately ripped (confidence 2) [0F6F0CE3] (AR v2)
Track 9 accurately ripped (confidence 2) [3AF09068] (AR v2)
Track 10 accurately ripped (confidence 2) [A7BE2770] (AR v2)

All tracks accurately ripped

End of status report

foobar2000 1.2.6 / Dynamic Range Meter 1.1.1
log date: 2017-08-17 22:49:54

––––––––––––––––––––––––––––––––––––––––
Analyzed: Lebowski / Cinematic
––––––––––––––––––––––––––––––––––––––––

DR Peak RMS Duration Track
––––––––––––––––––––––––––––––––––––––––
DR7 -0.14 dB -8.56 dB 5:42 01-Trip To Doha
DR7 0.00 dB -8.54 dB 7:13 02-137 Sec.
DR7 -0.15 dB -8.75 dB 7:43 03-Cinematic
DR7 0.00 dB -8.93 dB 5:11 04-Old British Spy Movie
DR7 -0.01 dB -9.09 dB 7:13 05-Iceland
DR7 -0.14 dB -8.69 dB 6:08 06-Encore
DR7 -0.14 dB -9.16 dB 6:08 07-Aperitif For Breakfast (O.M.R.J.)
DR8 -0.01 dB -9.45 dB 6:56 08-Spiritual Machine
DR8 -0.06 dB -10.83 dB 6:38 09-The Storyteller (Svensson)
DR6 -0.02 dB -7.50 dB 7:58 10-Human Error
––––––––––––––––––––––––––––––––––––––––

Number of tracks: 10
Official DR value: DR7

Samplerate: 44100 Hz
Channels: 2
Bits per sample: 16
Bitrate: 892 kbps
Codec: FLAC
================================================================================

[CUETools log; Date: 17.08.2017 22:50:00; Version: 2.1.5]
[CTDB TOCID: DjETiz7crumALAODvs8fK3eEg.0-] found.
Track | CTDB Status
1 | (13/13) Accurately ripped
2 | (13/13) Accurately ripped
3 | (13/13) Accurately ripped
4 | (13/13) Accurately ripped
5 | (13/13) Accurately ripped
6 | (13/13) Accurately ripped
7 | (13/13) Accurately ripped
8 | (13/13) Accurately ripped
9 | (13/13) Accurately ripped
10 | (13/13) Accurately ripped
[AccurateRip ID: 0018bf72-00c66e0f-880fa90a] found.
Track [ CRC | V2 ] Status
01 [e08bf657|9675cc17] (06+05/16) Accurately ripped
02 [9862932e|5712cd5d] (06+05/16) Accurately ripped
03 [a267f596|69a4817e] (06+05/16) Accurately ripped
04 [8f3093df|c1249d9e] (06+05/16) Accurately ripped
05 [95cf44c5|8bef93ab] (06+05/16) Accurately ripped
06 [6a42d02a|85bf592f] (06+05/16) Accurately ripped
07 [96aecca0|d0291a68] (06+05/16) Accurately ripped
08 [309b1a5a|0f6f0ce3] (06+05/16) Accurately ripped
09 [5a4e08e8|3af09068] (06+05/16) Accurately ripped
10 [f1672585|a7be2770] (06+05/16) Accurately ripped
Offsetted by -98:
01 [2ccc13e1] (00/16) No match (V2 was not tested)
02 [fc70c51a] (00/16) No match (V2 was not tested)
03 [cec3070a] (00/16) No match (V2 was not tested)
04 [b3e198af] (00/16) No match (V2 was not tested)
05 [ef70a9d5] (00/16) No match (V2 was not tested)
06 [b51b51fa] (00/16) No match (V2 was not tested)
07 [a3131f0a] (00/16) No match (V2 was not tested)
08 [9651736c] (00/16) No match (V2 was not tested)
09 [94f595b2] (00/16) No match (V2 was not tested)
10 [b96964d2] (00/16) No match (V2 was not tested)
Offsetted by -30:
01 [21af434d] (00/16) No match (V2 was not tested)
02 [494ccc42] (00/16) No match
03 [cf54d122] (00/16) No match
04 [419b030f] (00/16) No match
05 [586e63b5] (00/16) No match
06 [03c9025a] (00/16) No match
07 [ceb89cb6] (00/16) No match
08 [359eadc8] (00/16) No match
09 [08feb69e] (00/16) No match
10 [195f9b2b] (00/16) No match

Track Peak [ CRC32 ] [W/O NULL] [ LOG ]
– 100,0 [F6AB1D83] [ECA72D4A] CRC32
01 98,3 [5988250E] [A805F3F2]
02 100,0 [4615BC50] [F0AAEB82]
03 98,3 [56414049] [EB3199DF]
04 99,9 [54C8638D] [E123BDEC]
05 99,8 [D20DB239] [107C6F43]
06 98,4 [8BAE79E1] [814031E0]
07 98,3 [5570821F] [E9C3DA40]
08 99,9 [A545A648] [6B2ACA26]
09 99,3 [2BA1234A] [C826D7C3]
10 99,7 [96EF0165] [BCC69885]

Lebowski - Cinematic (2010)


See also:

Lebowski - Plays Lebowski (2017)

Lebowski - Galactica (2019)

All thanks go to wurensh

>>> My Blog <<<

DOWNLOAD: