Subcategories

Legion - War Beast (2016)

Posted By: popsakov
Legion - War Beast (2016)

Legion - War Beast (2016)
EAC Rip | FLAC (Img) + Cue + Log ~ 342 Mb | MP3 CBR320 ~ 106 Mb
Scans (JPG, 300 dpi) ~ 29 Mb | RAR 5% Recovery
Heavy Metal | Pure Steel Records #PSRCD133

With the New Jersey quintet LEGION we are proud to present a new signing on Pure Steel Records.

Classical, melodic Heavy Metal, deeply rooted in the American Steel of the 80s, is presented here. Already in 2005 the self released debut „Shadow Of The King“ has been unleashed, where they gained their first success with. One year later it has been re-released through Majestic Rock Records.

After a long break the second album „War Beast“ is ready. Driven by majestic leads, energetic high pitched screams from the new singer Ralph Gibbons and varied song writing LEGION offer everything an aficionado of American Steel adore.

Mixed by Black Label Society bassist John "JD" DeServio, the eight tracks have been forged to a work they can be proud of.
Legion - War Beast (2016)


***************

Legion - War Beast (2016)

Track List:

01. On The Place Horse [5:41]
02. Gypsy Dance [5:56]
03. Bricks Of Egypt [7:03]
04. When Life And Spirit Divide [4:31]
05. War Beast [5:31]
06. Stand And Fight [6:16]
07. Future Passed [5:27]
08. Luna [3:49]

Personnel:

guitars - Frank Adamo
vocals - Ralph Gibbons
guitars - Joe Adamo
bass - Arthur Maglio
drums - John Soden

Exact Audio Copy V1.1 from 23. June 2015

EAC extraction logfile from 3. October 2016, 16:00

Legion / War Beast (PSRCD133)

Used drive : PIONEER BD-RW BDR-209D Adapter: 0 ID: 5

Read mode : Secure
Utilize accurate stream : Yes
Defeat audio cache : Yes
Make use of C2 pointers : No

Read offset correction : 667
Overread into Lead-In and Lead-Out : No
Fill up missing offset samples with silence : Yes
Delete leading and trailing silent blocks : No
Null samples used in CRC calculations : Yes
Used interface : Installed external ASPI interface

Used output format : User Defined Encoder
Selected bitrate : 768 kBit/s
Quality : High
Add ID3 tag : No
Command line compressor : C:\Program Files (x86)\Exact Audio Copy\FLAC\FLAC.EXE
Additional command line options : -6 -V -T "ARTIST=%artist%" -T "TITLE=%title%" -T "ALBUM=%albumtitle%" -T "DATE=%year%" -T "TRACKNUMBER=%tracknr%" -T "GENRE=%genre%" -T "COMMENT=%comment%" -T "BAND=%albuminterpret%" -T "ALBUMARTIST=%albuminterpret%" -T "COMPOSER=%composer%" %haslyrics%–tag-from-file=LYRICS="%lyricsfile%"%haslyrics% -T "DISCNUMBER=%cdnumber%" -T "TOTALDISCS=%totalcds%" -T "TOTALTRACKS=%numtracks%" %hascover%–picture="%coverfile%"%hascover% %source% -o %dest%


TOC of the extracted CD

Track | Start | Length | Start sector | End sector
––––––––––––––––––––––––––––-
1 | 0:00.00 | 5:40.59 | 0 | 25558
2 | 5:40.59 | 5:56.04 | 25559 | 52262
3 | 11:36.63 | 7:02.52 | 52263 | 83964
4 | 18:39.40 | 4:30.55 | 83965 | 104269
5 | 23:10.20 | 5:30.47 | 104270 | 129066
6 | 28:40.67 | 6:16.23 | 129067 | 157289
7 | 34:57.15 | 5:26.60 | 157290 | 181799
8 | 40:24.00 | 3:49.27 | 181800 | 199001


Range status and errors

Selected range

Filename E:\MUSIC\Legion - War Beast (PSRCD133).wav

Peak level 96.4 %
Extraction speed 7.1 X
Range quality 99.9 %
Test CRC 111D4368
Copy CRC 111D4368
Copy OK

No errors occurred


AccurateRip summary

Track 1 not present in database
Track 2 not present in database
Track 3 not present in database
Track 4 not present in database
Track 5 not present in database
Track 6 not present in database
Track 7 not present in database
Track 8 not present in database

None of the tracks are present in the AccurateRip database

End of status report

==== Log checksum C1CA74D38EEBF98FAAFB6F3556C91F4BE1B38EB20138897F054AD3D432B79EDB ====

foobar2000 1.2.6 / Dynamic Range Meter 1.1.1
log date: 2016-10-04 16:06:09

––––––––––––––––––––––––––––––––––––––––
Analyzed: Legion / War Beast (PSRCD133)
––––––––––––––––––––––––––––––––––––––––

DR Peak RMS Duration Track
––––––––––––––––––––––––––––––––––––––––
DR6 -0.32 dB -6.93 dB 5:41 01-1. On The Place Horse
DR6 -0.32 dB -6.72 dB 5:56 02-2. Gypsy Dance
DR6 -0.32 dB -6.51 dB 7:03 03-3. Bricks Of Egypt
DR6 -0.32 dB -7.62 dB 4:31 04-4. When Life And Spirit Divide
DR5 -0.32 dB -5.84 dB 5:31 05-5. War Beast
DR5 -0.32 dB -6.60 dB 6:16 06-6. Stand And Fight
DR6 -0.32 dB -6.89 dB 5:27 07-7. Future Passed
DR5 -0.32 dB -7.25 dB 3:49 08-8. Luna
––––––––––––––––––––––––––––––––––––––––

Number of tracks: 8
Official DR value: DR5

Samplerate: 44100 Hz
Channels: 2
Bits per sample: 16
Bitrate: 1027 kbps
Codec: FLAC
================================================================================

[CUETools log; Date: 04.10.2016 16:06:09; Version: 2.1.5]
[CTDB TOCID: ilfcFAKqFF.FtmAy2MAfSEbZ8tM-] disk not present in database.
[AccurateRip ID: 000e3d60-005e63f0-640a5d08] disk not present in database.

Track Peak [ CRC32 ] [W/O NULL] [ LOG ]
– 96,4 [111D4368] [F4EFB77C] CRC32
01 96,4 [2960C62B] [2A191A34]
02 96,4 [83029F39] [23BC2FC5]
03 96,4 [17781AC3] [CE8546D6]
04 96,4 [F44240CA] [991C62ED]
05 96,4 [2C2DE585] [38827560]
06 96,4 [7F7A3246] [37D6F7B4]
07 96,4 [87DDD972] [2BF9A30D]
08 96,4 [6ACAC0AB] [ABB37E37]

Legion - War Beast (2016)

All thanks go to HaRD

> Visit my blog <

Download: