Tags
Language
Tags

Andrew Davis, The Metropolitan Opera Orchestra, Renee Fleming - Lehar: The Merry Widow (2015) [Blu-Ray]

Posted By: Vilboa
Andrew Davis, The Metropolitan Opera Orchestra, Renee Fleming - Lehar: The Merry Widow (2015) [Blu-Ray]

Andrew Davis, The Metropolitan Opera Orchestra, Renée Fleming - Lehár: The Merry Widow (2015) [Blu-Ray]
BluRay | BDMV | MPEG-4 AVC Video / 1080i / 29,970 fps | 138 min | 38,3 Gb
Audio1: English / LPCM Audio / 2.0 / 24-bit | Audio2: DTS-HD Master Audio / 5.1 / 48 kHz / 24-bit
––––––
BluRay-rip | AVC | MKV 1280x720 / 2735 kbps / 29,97 fps | 138 min | 6,34 Gb
Audio: English | PCM / 2ch / 48.0 KHz / 24 bits / DTS / 6ch / 48.0 KHz / 24 bits
Classical | DECCA | Sub: English, French, German

The great Renée Fleming stars as the beguiling femme fatale who captivates all Paris in Lehár’s enchanting operetta, seen in a new staging by Broadway virtuoso director and choreographer Susan Stroman (The Producers, Oklahoma!, Contact). Stroman and her design team of Julian Crouch (Satyagraha, The Enchanted Island) and costume designer William Ivey Long (Cinderella, Grey Gardens, Hairspray) have created an art-nouveau setting that climaxes with singing and dancing grisettes at the legendary Maxim’s. Nathan Gunn co-stars as Danilo and Kelli O’Hara is Valencienne. Sir Andrew Davis conducts.

Cast:
Vicomte Cascada - Jeff Mattsey
Baron Mirko Zeta - Sir Thomas Allen
Valencienne - Kelli O'Hara
Sylviane - Emalie Savoy
Olga - Wallis Giunta
Praskowia - Margaret Lattimore
Camille de Rosillon - Alek Shrader
Raoul de St.Brioche - Alexander Lewis
Kromow - Daniel Mobbs
Pritschitsch - Gary Simpson
Bogdanovitch - Mark Schowalter
Njegus - Carson Elrod
Hanna Glawari - Renée Fleming
Count Danilo Danilovitch - Nathan Gunn
The Metropolitan Opera Orchestra, Chorus and Ballet
Conductor - Sir Andrew Davis


01. Opening Credits
02. Introduction by Joyce DiDonato
Act I
03. Overture
04. "It's fallen to me to address you"
05. "And so I propose a toast to our connection"
06. "When one's a respectable wife (Come quickly, please)"
07. "We're going to have to get you married"
08. "What's that? … What's all this commotion?"
09. "What a beautiful voice you have"
10. "Then off to Chez Maxim"
11. "Danilo! There you are"
12. "I do love to dream - A place where we could be"
13. "This fan, with its repulsive inscription"
14. "Ladies' choice, can you hear the men rejoice?"
Act II
15. Introduction by Joyce DiDonato
16. Introduction, Dance and Vilja Song
17. "Madame Glawari"
18. "If a girl's admiring you (Hello, here's a soldier bold)"
19. "Keep away from the Widow"
20. "Who can tell what the hell women are? (What's the secret?)"
21. "Not so fast! Count Danilo!"
22. "A lady's fan! What's this?"
23. "Sir, I have an urgent"
24. "At the first kiss of April (Come on, Camille)"
25. "Oh no! The Baroness and Rosillon are in there, together, alone!"
26. "Ha! Ha! - Bonsoir Messieurs, did someone call?"
Act III
27. "Lolo, Dodo, Joujou"
28. "Mesdemoiselles"
29. "The Grisettes are on their way (We're the ladies of the Chorus)"
30. "Excellency, I have a telegram"
31. "No, you carry on"
32. "Music's playing, hear it saying"
33. "Just say the words"
34. "Let us live every day for Love! (Whenever I'm lost or I'm lonely…) "
35. "Love's all well and good…"
36. "Who can tell what the hell women are? (Why do men never know what we are?)
37. Bows & Closing Credits
Bonus
38. Joyce DiDonato Interviews Renée Fleming & Nathan Gunn
39. Joyce DiDonato Interviews Susan Stroman
40. Joyce DiDonato Interviews Thomas Allen & Alex Shrader
41. Joyce DiDonato Interviews Kelli O'Hara
42. Renée Fleming Interviews William Ivey Long


General
ID : 0 (0x0)
Complete name : C:\THE MERRY WIDOW\BDMV\STREAM\00000.m2ts
Format : BDAV
Format/Info : Blu-ray Video
File size : 13.3 GiB
Duration : 52mn 21s
Overall bit rate mode : Variable
Overall bit rate : 36.2 Mbps
Maximum Overall bit rate : 48.0 Mbps

Video
ID : 4113 (0x1011)
Menu ID : 1 (0x1)
Format : AVC
Format/Info : Advanced Video Codec
Format profile : High@L4.1
Format settings, CABAC : Yes
Format settings, ReFrames : 4 frames
Codec ID : 27
Duration : 52mn 21s
Bit rate mode : Variable
Maximum bit rate : 34.0 Mbps
Width : 1 920 pixels
Height : 1 080 pixels
Display aspect ratio : 16:9
Frame rate : 29.970 fps
Standard : NTSC
Color space : YUV
Chroma subsampling : 4:2:0
Bit depth : 8 bits
Scan type : MBAFF
Scan order : Top Field First
Color primaries : BT.709
Transfer characteristics : BT.709
Matrix coefficients : BT.709
Color range : Limited

Audio #1
ID : 4352 (0x1100)
Menu ID : 1 (0x1)
Format : PCM
Format settings, Endianness : Big
Format settings, Sign : Signed
Muxing mode : Blu-ray
Codec ID : 128
Duration : 52mn 21s
Bit rate mode : Constant
Bit rate : 2 304 Kbps
Channel(s) : 2 channels
Channel positions : Front: L R
Sampling rate : 48.0 KHz
Bit depth : 24 bits
Stream size : 863 MiB (6%)

Audio #2
ID : 4353 (0x1101)
Menu ID : 1 (0x1)
Format : DTS
Format/Info : Digital Theater Systems
Format profile : MA / Core
Mode : 16
Format settings, Endianness : Big
Muxing mode : Stream extension
Codec ID : 134
Duration : 52mn 21s
Bit rate mode : Variable
Bit rate : Unknown / 1 509 Kbps
Channel(s) : 6 channels
Channel positions : Front: L C R, Side: L R, LFE
Sampling rate : 48.0 KHz
Bit depth : 24 bits
Compression mode : Lossless / Lossy

Text #1
ID : 4608 (0x1200)
Menu ID : 1 (0x1)
Format : PGS
Codec ID : 144

Text #2
ID : 4609 (0x1201)
Menu ID : 1 (0x1)
Format : PGS
Codec ID : 144

Text #3
ID : 4610 (0x1202)
Menu ID : 1 (0x1)
Format : PGS
Codec ID : 144


General
Unique ID : 207323973682220267451569109772424750999 (0x9BF92518D8FABFDC9BD57B8D61A0A797)
Complete name : C:\THE MERRY WIDOW.mkv
Format : Matroska
Format version : Version 2
File size : 6.35 GiB
Duration : 2h 17mn
Overall bit rate : 6 590 Kbps
Movie name : THE MERRY WIDOW
Encoded date : UTC 2021-10-12 13:45:28
Writing application : DVDFab 9.1.6.8
Writing library : libebml v0.7.8 + libmatroska v0.8.1

Video
ID : 1
Format : AVC
Format/Info : Advanced Video Codec
Format profile : High@L4.1
Format settings, CABAC : Yes
Format settings, ReFrames : 2 frames
Codec ID : V_MPEG4/ISO/AVC
Duration : 2h 17mn
Nominal bit rate : 2 735 Kbps
Width : 1 280 pixels
Height : 720 pixels
Display aspect ratio : 16:9
Frame rate mode : Constant
Frame rate : 29.970 fps
Color space : YUV
Chroma subsampling : 4:2:0
Bit depth : 8 bits
Scan type : Progressive
Bits/(Pixel*Frame) : 0.099
Writing library : x264 core 142
Encoding settings : cabac=1 / ref=1 / deblock=1:-1:-1 / analyse=0x3:0 / me=hex / subme=5 / psy=0 / mixed_ref=0 / me_range=16 / chroma_me=1 / trellis=0 / 8x8dct=1 / cqm=0 / deadzone=21,11 / fast_pskip=1 / chroma_qp_offset=0 / threads=8 / lookahead_threads=2 / sliced_threads=0 / nr=0 / decimate=1 / interlaced=0 / bluray_compat=0 / constrained_intra=0 / bframes=2 / b_pyramid=0 / b_adapt=1 / b_bias=0 / direct=1 / weightb=1 / open_gop=0 / weightp=0 / keyint=24 / keyint_min=13 / scenecut=40 / intra_refresh=0 / rc=abr / mbtree=0 / bitrate=2735 / ratetol=1.0 / qcomp=0.60 / qpmin=0 / qpmax=69 / qpstep=4 / ip_ratio=1.40 / pb_ratio=1.30 / aq=1:1.00
Default : Yes
Forced : No
Color primaries : BT.709
Transfer characteristics : BT.709
Matrix coefficients : BT.709
Color range : Limited

Audio #1
ID : 2
Format : PCM
Codec ID : A_PCM/INT/LIT
Duration : 2h 17mn
Bit rate mode : Constant
Channel(s) : 2 channels
Sampling rate : 48.0 KHz
Bit depth : 24 bits
Language : English
Default : Yes
Forced : No

Audio #2
ID : 3
Format : DTS
Format/Info : Digital Theater Systems
Mode : 16
Format settings, Endianness : Big
Codec ID : A_DTS
Duration : 2h 17mn
Bit rate mode : Constant
Bit rate : 1 509 Kbps
Channel(s) : 6 channels
Channel positions : Front: L C R, Side: L R, LFE
Sampling rate : 48.0 KHz
Bit depth : 24 bits
Compression mode : Lossy
Stream size : 1.45 GiB (23%)
Language : English
Default : No
Forced : No

Text #1
ID : 4
Format : VobSub
Codec ID : S_VOBSUB
Codec ID/Info : The same subtitle format used on DVDs
Language : English
Default : Yes
Forced : No

Text #2
ID : 5
Format : VobSub
Codec ID : S_VOBSUB
Codec ID/Info : The same subtitle format used on DVDs
Language : French
Default : No
Forced : No

Text #3
ID : 6
Format : VobSub
Codec ID : S_VOBSUB
Codec ID/Info : The same subtitle format used on DVDs
Language : German
Default : No
Forced : No

Menu
00:00:00.000 : en:Chapter 01
00:00:51.384 : en:Chapter 02
00:02:58.645 : en:Chapter 03
00:07:20.406 : en:Chapter 04
00:09:27.199 : en:Chapter 05
00:13:28.908 : en:Chapter 06
00:17:56.208 : en:Chapter 07
00:19:34.373 : en:Chapter 08
00:22:54.439 : en:Chapter 09
00:26:27.953 : en:Chapter 10
00:28:51.396 : en:Chapter 11
00:36:11.903 : en:Chapter 12
00:39:00.004 : en:Chapter 13
00:42:05.623 : en:Chapter 14
00:52:21.304 : en:Chapter 15
00:53:11.821 : en:Chapter 16
01:02:27.677 : en:Chapter 17
01:09:33.435 : en:Chapter 18
01:12:49.665 : en:Chapter 19
01:14:35.037 : en:Chapter 20
01:17:58.407 : en:Chapter 21
01:18:59.668 : en:Chapter 22
01:23:40.048 : en:Chapter 23
01:26:00.455 : en:Chapter 24
01:32:11.025 : en:Chapter 25
01:35:02.830 : en:Chapter 26
01:47:06.052 : en:Chapter 27
01:50:40.867 : en:Chapter 28
01:53:29.869 : en:Chapter 29
01:57:18.664 : en:Chapter 30
02:00:17.843 : en:Chapter 31
02:02:54.333 : en:Chapter 32
02:05:27.453 : en:Chapter 33
02:08:49.388 : en:Chapter 34
02:11:16.869 : en:Chapter 35
02:12:55.100 : en:Chapter 36
02:13:58.030 : en:Chapter 37

All screenshots taken from BDRip

Andrew Davis, The Metropolitan Opera Orchestra, Renee Fleming - Lehar: The Merry Widow (2015) [Blu-Ray]