Tags
Language
Tags

Leonhardt-Consort, King's College Choir, Brüggen-Consort - Henry Purcell: Anthems, Instrumental Music, Songs (1993)

Posted By: ArlegZ
Leonhardt-Consort, King's College Choir, Brüggen-Consort - Henry Purcell: Anthems, Instrumental Music, Songs (1993)

Gustav Leonhardt, Leonhardt-Consort, David Willcocks, King's College Choir, Frans Brüggen, Brüggen-Consort - Henry Purcell: Anthems, Instrumental Music, Songs (1993)
EAC | FLAC | Image (Cue & Log) ~ 556 Mb | Total time: 50:30+60:53 | Scans included
Classical | Label: Teldec | # 9031-77608-2 | Recorded: 1967, 1968, 1970

This 2 CD-set presents two aspects of Purcell's music: religious music and instrumental music. Let's start by the first CD. It includes magnificent anthems for the Church for soloists, choir, and orchestra. The first track to open the CD, "Rejoice in the Lord alway", is probably one of Purcell's most famous anthem. The beautiful introduction (sometimes known as the Bell Anthem) prepares the entry of the two countertenors who expose the melody, intoned by the choir later. As with Purcell's style, the music is always refined. The soloists are all top-notch here, and the choir (King's College of Cambridge) is, as always, magnificent. It is really nice to hear the soprano part sung by boys, as I think it gives another dimension to Purcell's music. After the first three anthems, the famous Chacony in G Minor is inserted, I guess to give rest to the listener. The CD tries also to present anthems for different forces: some are just for 2 soloists and organ, while others require the use of the full choir with soloists and the orchestra. However, the orchestra does not include trumpets, timpani, or oboes here, so the forces stay somewhat minimalist.
The second CD focuses on Purcell's instrumental music, this time played by the Bruggen-Consort, under the direction of its founder Franz Bruggen. It focuses on the miscellaneous music Purcell wrote for instruments. Most of it is only available as manuscripts and was never published during the composer's lifetime. Only the pavans for viols and continuo might be already familiar to some. The music is also very varied, including pieces for viols, harpsichord solo, and string quartet (2 violins, viola, continuo).

Performer:
James Bowman, countertenor (Anthems)
Nigel Rogers, tenor (Anthems)
Max van Egmond, bass (Anthems & Songs)
King's College Choir, Cambridge / David Willcocks (Anthems)
Leonhardt-Consort / Gustav Leonhardt
Brüggen-Consort / Frans Brüggen (CD2: Fantasia)

Track List:
Henry Purcell (1659-1695)
CD1:
01. Rejoice in the Lord alway, Z 49
02. Blow up the trumpet in Sion, Z 10
03. O God, Thou art my God, Z 35
04. Chacony in G minor, Z 730
05. O God, Thou hast cast us out, Z 36
06. My heart is inditing, Z 30
07. Remember not, Lord, our offenses, Z 50
CD2:
01. Overture in D minor, Z 771
02. Pavan in B flat major, Z 750
03. Ground in D minor, Z D 222
04. Overture (with Suite) in G major, Z 770
05. Pavan in A minor, Z 749
06. Fantasia (Chaconne): Three Parts on a Ground in D major, Z 731
07. Overture in G minor, Z 772
08. Suite in D major, Z 667
09. Pavan of Four Parts in G minor, Z 752
10. Sefauchi's Farewell in D minor, Z 656
11. A New Ground in E minor, Z T 682
12. Sonata in A minor, Z 804
13. Fantasia a 4 No. 7
14. Fly swift, ye hours
15. The father brave
16. Return, revolting rebels


Exact Audio Copy V1.3 from 2. September 2016

EAC extraction logfile from 1. March 2022, 14:22

Henry Purcell; Bowman, Rogers, van Egmond, King's College Choir Cambridge, Leonhardt‐Consort, Brüggen-Consort / Anthems / Instrumental Music / Songs

Used drive : HL-DT-STDVDRAM GH24NSD5 Adapter: 1 ID: 0

Read mode : Secure
Utilize accurate stream : Yes
Defeat audio cache : Yes
Make use of C2 pointers : No

Read offset correction : 6
Overread into Lead-In and Lead-Out : No
Fill up missing offset samples with silence : Yes
Delete leading and trailing silent blocks : No
Null samples used in CRC calculations : Yes
Used interface : Native Win32 interface for Win NT & 2000

Used output format : User Defined Encoder
Selected bitrate : 1024 kBit/s
Quality : High
Add ID3 tag : No
Command line compressor : C:\Program Files (x86)\Exact Audio Copy\FLAC\FLAC.EXE
Additional command line options : -6 -V -T "ARTIST=%artist%" -T "TITLE=%title%" -T "ALBUM=%albumtitle%" -T "DATE=%year%" -T "TRACKNUMBER=%tracknr%" -T "GENRE=%genre%" -T "COMMENT=%comment%" -T "BAND=%albuminterpret%" -T "ALBUMARTIST=%albuminterpret%" -T "COMPOSER=%composer%" %haslyrics%–tag-from-file=LYRICS="%lyricsfile%"%haslyrics% -T "DISCNUMBER=%cdnumber%" -T "TOTALDISCS=%totalcds%" -T "TOTALTRACKS=%numtracks%" %hascover%–picture="%coverfile%"%hascover% %source% -o %dest%


TOC of the extracted CD

Track | Start | Length | Start sector | End sector
––––––––––––––––––––––––––––-
1 | 0:00.00 | 8:58.70 | 0 | 40419
2 | 8:58.70 | 7:45.50 | 40420 | 75344
3 | 16:44.45 | 4:18.22 | 75345 | 94716
4 | 21:02.67 | 5:06.40 | 94717 | 117706
5 | 26:09.32 | 4:33.18 | 117707 | 138199
6 | 30:42.50 | 16:46.30 | 138200 | 213679
7 | 47:29.05 | 3:01.05 | 213680 | 227259


Range status and errors

Selected range

Filename C:\Users\pere\Music\Henry Purcell; Bowman, Rogers, van Egmond, King's College Choir Cambridge, Leonhardt‐Consort, Brüggen-Consort - Anthems , Instrumental Music , Songs.wav

Peak level 98.4 %
Extraction speed 6.6 X
Range quality 99.9 %
Test CRC 090D897F
Copy CRC 090D897F
Copy OK

No errors occurred


AccurateRip summary

Track 1 accurately ripped (confidence 11) [432DBAA5] (AR v2)
Track 2 accurately ripped (confidence 11) [B28332F4] (AR v2)
Track 3 accurately ripped (confidence 11) [5C8F8FC6] (AR v2)
Track 4 accurately ripped (confidence 11) [F169CA66] (AR v2)
Track 5 accurately ripped (confidence 11) [4EC3BC9F] (AR v2)
Track 6 accurately ripped (confidence 11) [A1F76DF0] (AR v2)
Track 7 accurately ripped (confidence 11) [6406AB00] (AR v2)

All tracks accurately ripped

End of status report

–– CUETools DB Plugin V2.1.6

[CTDB TOCID: vNtw8bCE50Iv7Iqfez2SkIH_TgA-] found
Submit result: The underlying connection was closed: A connection that was expected to be kept alive was closed by the server.
Track | CTDB Status
1 | (26/46) Accurately ripped
2 | (46/46) Accurately ripped
3 | (46/46) Accurately ripped
4 | (46/46) Accurately ripped
5 | (46/46) Accurately ripped
6 | (46/46) Accurately ripped
7 | (46/46) Accurately ripped


==== Log checksum 5CD5F9F2577ECBDB0310910786009515ECEB56B59717ED61277FEA6568E135A0 ====


Exact Audio Copy V1.3 from 2. September 2016

EAC extraction logfile from 1. March 2022, 14:42

Artista desconocido / Título desconocido

Used drive : HL-DT-STDVDRAM GH24NSD5 Adapter: 1 ID: 0

Read mode : Secure
Utilize accurate stream : Yes
Defeat audio cache : Yes
Make use of C2 pointers : No

Read offset correction : 6
Overread into Lead-In and Lead-Out : No
Fill up missing offset samples with silence : Yes
Delete leading and trailing silent blocks : No
Null samples used in CRC calculations : Yes
Used interface : Native Win32 interface for Win NT & 2000

Used output format : User Defined Encoder
Selected bitrate : 1024 kBit/s
Quality : High
Add ID3 tag : No
Command line compressor : C:\Program Files (x86)\Exact Audio Copy\FLAC\FLAC.EXE
Additional command line options : -6 -V -T "ARTIST=%artist%" -T "TITLE=%title%" -T "ALBUM=%albumtitle%" -T "DATE=%year%" -T "TRACKNUMBER=%tracknr%" -T "GENRE=%genre%" -T "COMMENT=%comment%" -T "BAND=%albuminterpret%" -T "ALBUMARTIST=%albuminterpret%" -T "COMPOSER=%composer%" %haslyrics%–tag-from-file=LYRICS="%lyricsfile%"%haslyrics% -T "DISCNUMBER=%cdnumber%" -T "TOTALDISCS=%totalcds%" -T "TOTALTRACKS=%numtracks%" %hascover%–picture="%coverfile%"%hascover% %source% -o %dest%


TOC of the extracted CD

Track | Start | Length | Start sector | End sector
––––––––––––––––––––––––––––-
1 | 0:00.00 | 3:45.00 | 0 | 16874
2 | 3:45.00 | 3:14.62 | 16875 | 31486
3 | 6:59.62 | 2:04.13 | 31487 | 40799
4 | 9:04.00 | 7:40.12 | 40800 | 75311
5 | 16:44.12 | 3:42.00 | 75312 | 91961
6 | 20:26.12 | 4:41.20 | 91962 | 113056
7 | 25:07.32 | 3:36.43 | 113057 | 129299
8 | 28:44.00 | 4:41.62 | 129300 | 150436
9 | 33:25.62 | 4:37.00 | 150437 | 171211
10 | 38:02.62 | 1:16.13 | 171212 | 176924
11 | 39:19.00 | 2:40.50 | 176925 | 188974
12 | 41:59.50 | 6:06.12 | 188975 | 216436
13 | 48:05.62 | 3:37.00 | 216437 | 232711
14 | 51:42.62 | 6:22.15 | 232712 | 261376
15 | 58:05.02 | 1:31.25 | 261377 | 268226
16 | 59:36.27 | 1:17.03 | 268227 | 274004


Range status and errors

Selected range

Filename C:\Users\pere\Music\Artista desconocido - Título desconocido.wav

Peak level 99.2 %
Extraction speed 7.5 X
Range quality 100.0 %
Test CRC F6340CC5
Copy CRC F6340CC5
Copy OK

No errors occurred


AccurateRip summary

Track 1 accurately ripped (confidence 10) [B94C24E9] (AR v2)
Track 2 accurately ripped (confidence 10) [04DA31A6] (AR v2)
Track 3 accurately ripped (confidence 10) [CF42557F] (AR v2)
Track 4 accurately ripped (confidence 10) [D587CA6B] (AR v2)
Track 5 accurately ripped (confidence 10) [D82F7E89] (AR v2)
Track 6 accurately ripped (confidence 10) [F17C13D0] (AR v2)
Track 7 accurately ripped (confidence 10) [70DC68B6] (AR v2)
Track 8 accurately ripped (confidence 10) [27A6DA2D] (AR v2)
Track 9 accurately ripped (confidence 10) [5F63773F] (AR v2)
Track 10 accurately ripped (confidence 10) [A4F3D422] (AR v2)
Track 11 accurately ripped (confidence 10) [139D9CDE] (AR v2)
Track 12 accurately ripped (confidence 10) [F85A5B00] (AR v2)
Track 13 accurately ripped (confidence 10) [3B0EBE3D] (AR v2)
Track 14 accurately ripped (confidence 10) [BF75CA14] (AR v2)
Track 15 accurately ripped (confidence 10) [FC03E52F] (AR v2)
Track 16 accurately ripped (confidence 10) [3BDEE5E3] (AR v2)

All tracks accurately ripped

End of status report

–– CUETools DB Plugin V2.1.6

[CTDB TOCID: oYN2PGMjAblvffFp6jZRHw5YnaY-] database access error: The remote name could not be resolved: 'db.cuetools.net'


==== Log checksum 4B9C4041EB7EBFA0BAE8802EA101C764B536CE8E76314CF8035FCDF2EC2058A1 ====

Leonhardt-Consort, King's College Choir, Brüggen-Consort - Henry Purcell: Anthems, Instrumental Music, Songs (1993)

Thanks to the original releaser