Tags
Language
Tags
June 2024
Su Mo Tu We Th Fr Sa
26 27 28 29 30 31 1
2 3 4 5 6 7 8
9 10 11 12 13 14 15
16 17 18 19 20 21 22
23 24 25 26 27 28 29
30 1 2 3 4 5 6

Les Boréades de Montréal, Francis Colpron - Noëls (1996)

Posted By: tirexiss
Les Boréades de Montréal, Francis Colpron - Noëls (1996)

Les Boréades de Montréal, Francis Colpron - Noëls (1996)
EAC | FLAC (image+.cue, log) | Covers Included | 56:39 | 334 MB
Genre: Classical | Label: Atma Classique | Catalog: ACD22118

These traditional noëls by Claude Balbastre, Michel Corrette, Louis Claude Daquin and Jean-Francois Dandrieu are intimate and elegant, and make a unique contribution to any collection of festive seasonal music. Borrowing tunes from popular songs of the day, these 18th century composers wrote noëls that are simple in nature, combining joy and devotion.

Les Boréades de Montréal, Francis Colpron - Noëls (1996)

Track List:

JEAN-FRANÇOIS DANDRIEU (1882-1738)
1: Nous sommes en voie [ 1:30 ]
LIVRE DE NOËLS, 1759
MICHEL CORRETTE (1707-1795)
2: Tous les bourgeois de Chastres [ 2:38 ]
NOUVEAU LIVRE DES NOËLS, 1753
LOUIS-CLAUDE DAQUIN (1894-1772)
3: Or, nous dites, Marie [ 6:03 ]
NOUVEAU LIVRE DE NOËLS, 1757
MICHEL CORRETTE
4: Noël provençal [ 1:47 ]
LOUIS-CLAUDE DAQUIN
5: Une bergère jolie [ 10:35]
EN MUSETTE, EN DIALOGUE ET EN RONDEAU, TRÈS TENDREMENT
MICHEL CORRETTE
6: Où s’en vont ces gays bergers ?[ 6:44 ] 7 :: Joseph est bien marié [ 2:27 ]
CLAUDE BALBASTRE (1727-1799)
8: Il est un petit ange OU Noël suisse [ 6:23 ]
RECUEIL DE NOËLS FORMANT QUATRE SUITES AVEC DES VARIATIONS, 1770
LOUIS-CLAUDE DAQUIN
9: À la venue de Noël [ 4:17 ]
MICHEL CORRETTE
10: Une jeune pucelle [ 6:35 ] 11 :: Bon Joseph, écoute moy [ 4:56 ]
JEAN-FRANÇOIS DANDRIEU
12: Noël poitevin [ 2:10 ]

Performers:
Les Boréades de Montréal:
Francis Colpron (flûte à bec & direction)
Hélène Plouffe (violon baroque)
Susie Napper (viole de gambe)
Marie Bouchard (clavecin et orgue positif)
Rafik Samman (percussion)
Éric Mercier (chabrette du Limousin)

Exact Audio Copy V1.3 from 2. September 2016

EAC extraction logfile from 14. March 2019, 16:52

Les Boréades de Montréal / Noëls

Used drive : HL-DT-STDVDRAM GP65NW60 Adapter: 1 ID: 0

Read mode : Secure
Utilize accurate stream : Yes
Defeat audio cache : Yes
Make use of C2 pointers : No

Read offset correction : 6
Overread into Lead-In and Lead-Out : No
Fill up missing offset samples with silence : Yes
Delete leading and trailing silent blocks : No
Null samples used in CRC calculations : Yes
Used interface : Native Win32 interface for Win NT & 2000

Used output format : User Defined Encoder
Selected bitrate : 1024 kBit/s
Quality : High
Add ID3 tag : No
Command line compressor : C:\Program Files (x86)\Exact Audio Copy\FLAC\FLAC.EXE
Additional command line options : -6 -V -T "ARTIST=%artist%" -T "TITLE=%title%" -T "ALBUM=%albumtitle%" -T "DATE=%year%" -T "TRACKNUMBER=%tracknr%" -T "GENRE=%genre%" -T "COMMENT=%comment%" -T "BAND=%albuminterpret%" -T "ALBUMARTIST=%albuminterpret%" -T "COMPOSER=%composer%" %haslyrics%–tag-from-file=LYRICS="%lyricsfile%"%haslyrics% -T "DISCNUMBER=%cdnumber%" -T "TOTALDISCS=%totalcds%" -T "TOTALTRACKS=%numtracks%" %hascover%–picture="%coverfile%"%hascover% %source% -o %dest%


TOC of the extracted CD

Track | Start | Length | Start sector | End sector
––––––––––––––––––––––––––––-
1 | 0:00.00 | 1:31.67 | 0 | 6891
2 | 1:31.67 | 2:41.00 | 6892 | 18966
3 | 4:12.67 | 6:07.38 | 18967 | 46529
4 | 10:20.30 | 1:51.00 | 46530 | 54854
5 | 12:11.30 | 10:38.37 | 54855 | 102741
6 | 22:49.67 | 6:47.00 | 102742 | 133266
7 | 29:36.67 | 2:30.38 | 133267 | 144554
8 | 32:07.30 | 6:26.37 | 144555 | 173541
9 | 38:33.67 | 4:21.00 | 173542 | 193116
10 | 42:54.67 | 6:37.00 | 193117 | 222891
11 | 49:31.67 | 4:58.00 | 222892 | 245241
12 | 54:29.67 | 2:12.55 | 245242 | 255196


Range status and errors

Selected range

Filename C:\Users\Grant\Desktop\Les Boréades de Montréal - Noëls.wav

Peak level 91.9 %
Extraction speed 1.9 X
Range quality 100.0 %
Test CRC 1FF5339B
Copy CRC 1FF5339B
Copy OK

No errors occurred


AccurateRip summary

Track 1 accurately ripped (confidence 2) [7525C671] (AR v1)
Track 2 accurately ripped (confidence 2) [36C2D920] (AR v1)
Track 3 accurately ripped (confidence 2) [BD40212D] (AR v1)
Track 4 accurately ripped (confidence 2) [5F3428D6] (AR v1)
Track 5 accurately ripped (confidence 2) [792A7A4A] (AR v1)
Track 6 accurately ripped (confidence 2) [B6536327] (AR v1)
Track 7 accurately ripped (confidence 2) [6E28BACF] (AR v1)
Track 8 accurately ripped (confidence 2) [24A5E698] (AR v1)
Track 9 accurately ripped (confidence 2) [B36B29CE] (AR v1)
Track 10 accurately ripped (confidence 2) [59FA4FE5] (AR v1)
Track 11 accurately ripped (confidence 2) [5488CAD5] (AR v1)
Track 12 accurately ripped (confidence 2) [478B0850] (AR v1)

All tracks accurately ripped

End of status report

–– CUETools DB Plugin V2.1.6

[CTDB TOCID: sYRlm8BBFmA35i6X.z1mPWm1HQM-] found
Submit result: sYRlm8BBFmA35i6X.z1mPWm1HQM- has been confirmed
Track | CTDB Status
1 | (4/4) Accurately ripped
2 | (4/4) Accurately ripped
3 | (4/4) Accurately ripped
4 | (4/4) Accurately ripped
5 | (4/4) Accurately ripped
6 | (4/4) Accurately ripped
7 | (4/4) Accurately ripped
8 | (4/4) Accurately ripped
9 | (4/4) Accurately ripped
10 | (4/4) Accurately ripped
11 | (4/4) Accurately ripped
12 | (4/4) Accurately ripped


==== Log checksum B2E5BCD6BFE18E40F3D2995DC61BD1C15936DFB6187E2B4406241AF347ABB35D ====

Thanks to the Original ripper (unknown)!

Download: