Tags
Language
Tags

Les McCann - Another Beginning & Hustle To Survive (2000) [2CDs] {Collectables}

Posted By:
Les McCann - Another Beginning & Hustle To Survive (2000) [2CDs] {Collectables}

Les McCann - Another Beginning & Hustle To Survive (2000) [2CDs] {Collectables}
EAC 1.0b3 | FLAC tracks level 8 | Cue+Log+M3U | Scans 300dpi | 502MB + 5% Recovery
MP3 CBR 320 Kbps | 201MB + 5% Recovery
Genre: Soul, Funk, Jazz-Funk

Following the surprising commercial success of "Compared to What" in 1969, pianist Les McCann never managed to get another hit as hard as he tried. These two sessions originally released for Atlantic found McCann struggling with that goal instead of concentrating on his talent as a jazz musician. Unfortunately, the lackluster material found McCann merely falling back on the most predictable aspects of mid-'70s soul and R&B. McCann sings on a majority of the tracks, while the synthesizer noodling and string arrangements have not dated well. Only the Peter Allen/Carole Bayer Sager-penned "Will We Ever Find Our Fathers," featuring Herbie Hancock on piano, is of note.
Track List

CD1 - Another Beginning 1974

01. Maybe You'll Come Back [03:58]
02. The Song Of Love [03:12]
03. When It's Over [10:25]
04. Somebody's Been Lying 'Bout Me [03:33]
05. Go On And Cry [05:20]
06. My Soul Lies Deep [05:21]
07. The Morning Song [03:40]
08. Someday We'll Meet Again [06:52]

musicians
Les McCann - piano, electric piano, synthesizer, clavinet, vocals, arranger
Jon Faddis, Danny Moore, Joe Wilder - trumpet, flugelhorn
Garnett Brown, Kiane Zawadi - trombone
Bill Slapin - clarinet, saxophone
Seldon Powell, Harold Vick, Frank Wess - saxophone
Roy Gaines (tracks 1 & 2), Miroslaw Kudykowski (tracks 3-7) - guitar
Chuck Rainey (tracks 1 & 2), Jimmy Rowser (tracks 3-7) - electric bass
Harold Davis (tracks 3-7), Paul Humphrey (tracks 1 & 2) - drums
Buck Clarke - percussion
William Eaton - arranger
Sally Stevens, Marti McCall, Bob Esty, Jim Gilstrap, Carmen Bryant, Vennette Gloud, Sandy Merrill Smolen, Kathy Collier, Morgan Ames, Cissy Houston, Deidre Tuck, Rennelle Stafford, Norma Holmes, Tamiko Loving, Laurence Moore - background vocals
David Nadien, Emanuel Green, Paul Gershman, Selwart Clarke, Joe Malin, Matthew Raimondi, Sanford Allen, Harry Lookofsky, Max Ellen, Harry Cykman - violin
Al Brown, Julien Barber - violas
Kermit Moore, George Ricci - cello
Herb Bushler - bass

Produced by Joel Dorn, Les McCann and Jack Shaw

CD2 - Hustle To Survive 1975

01. Us [05:18]
02. Changing Seasons [04:18]
03. Got To Hustle To Survive [04:04]
04. Butterflies [08:05]
05. Says Who Says What? [04:31]
06. Well We Ever Find Our Fathers [05:10]
07. Well, Cuss My Daddy [04:15]
08. Why Is Now [04:12]
09. Let Your Learning Be Your Eyes [05:12]

musicians
Conductor, Vocals, Piano, Keyboards, Synthesizer – Les McCann
Bass – James E. Rowser* (tracks: 1 to 6, 8 to 10)
Guitar – Miroslaw Kudykowski (tracks: 1 to 6, 8 to 10)
Percussion – Harold Davis (tracks: 1 to 6, 8 to 10)

Produced by Les McCann, Bert DeCoteaux and Tony Silvester


Exact Audio Copy V1.0 beta 3 from 29. August 2011

EAC extraction logfile from 3. December 2012, 19:26

Les McCann / Another Beginning

Used drive : HL-DT-STBD-RE BH14NS40 Adapter: 0 ID: 0

Read mode : Secure
Utilize accurate stream : Yes
Defeat audio cache : Yes
Make use of C2 pointers : No

Read offset correction : 6
Overread into Lead-In and Lead-Out : No
Fill up missing offset samples with silence : Yes
Delete leading and trailing silent blocks : No
Null samples used in CRC calculations : Yes
Used interface : Native Win32 interface for Win NT & 2000
Gap handling : Appended to previous track

Used output format : User Defined Encoder
Selected bitrate : 1024 kBit/s
Quality : High
Add ID3 tag : No
Command line compressor : C:\Program Files (x86)\Exact Audio Copy\Flac\flac.exe
Additional command line options : -8 -V -T "ARTIST=%artist%" -T "TITLE=%title%" -T "ALBUM=%albumtitle%" -T "DATE=%year%" -T "TRACKNUMBER=%tracknr%" -T "GENRE=%genre%" -T "PERFORMER=%albuminterpret%" -T "COMPOSER=%composer%" %haslyrics%–tag-from-file=LYRICS="%lyricsfile%"%haslyrics% -T "ALBUMARTIST=%albumartist%" -T "DISCNUMBER=%cdnumber%" -T "TOTALDISCS=%totalcds%" -T "TOTALTRACKS=%numtracks%" -T "COMMENT=%comment%" %source% -o %dest%


TOC of the extracted CD

Track | Start | Length | Start sector | End sector
––––––––––––––––––––––––––––-
1 | 0:00.00 | 3:58.72 | 0 | 17921
2 | 3:58.72 | 3:12.20 | 17922 | 32341
3 | 7:11.17 | 10:25.50 | 32342 | 79266
4 | 17:36.67 | 3:33.05 | 79267 | 95246
5 | 21:09.72 | 5:20.00 | 95247 | 119246
6 | 26:29.72 | 5:21.03 | 119247 | 143324
7 | 31:51.00 | 3:40.07 | 143325 | 159831
8 | 35:31.07 | 6:52.53 | 159832 | 190784


Track 1

Filename G:\EACRips\Les McCann\Les McCann - Another Beginning & Hustle To Survive (2000) [FLAC] {COL-CD-6608}\Another Beginning (1974) [FLAC]\01. Maybe You'll Come Back.wav

Pre-gap length 0:00:02.00

Peak level 99.9 %
Extraction speed 3.0 X
Track quality 100.0 %
Test CRC BB859A2E
Copy CRC BB859A2E
Accurately ripped (confidence 2) [01F5691A] (AR v2)
Copy OK

Track 2

Filename G:\EACRips\Les McCann\Les McCann - Another Beginning & Hustle To Survive (2000) [FLAC] {COL-CD-6608}\Another Beginning (1974) [FLAC]\02. The Song Of Love.wav

Pre-gap length 0:00:02.02

Peak level 99.9 %
Extraction speed 1.1 X
Track quality 100.0 %
Test CRC 5F6F88DD
Copy CRC 5F6F88DD
Accurately ripped (confidence 2) [1EF28376] (AR v2)
Copy OK

Track 3

Filename G:\EACRips\Les McCann\Les McCann - Another Beginning & Hustle To Survive (2000) [FLAC] {COL-CD-6608}\Another Beginning (1974) [FLAC]\03. When It's Over.wav

Pre-gap length 0:00:02.26

Peak level 99.9 %
Extraction speed 1.4 X
Track quality 100.0 %
Test CRC 68AFFF57
Copy CRC 68AFFF57
Accurately ripped (confidence 2) [4D408501] (AR v2)
Copy OK

Track 4

Filename G:\EACRips\Les McCann\Les McCann - Another Beginning & Hustle To Survive (2000) [FLAC] {COL-CD-6608}\Another Beginning (1974) [FLAC]\04. Somebody's Been Lying 'Bout Me.wav

Pre-gap length 0:00:03.20

Peak level 99.9 %
Extraction speed 1.4 X
Track quality 100.0 %
Test CRC 6282BB07
Copy CRC 6282BB07
Accurately ripped (confidence 2) [7898BBF4] (AR v2)
Copy OK

Track 5

Filename G:\EACRips\Les McCann\Les McCann - Another Beginning & Hustle To Survive (2000) [FLAC] {COL-CD-6608}\Another Beginning (1974) [FLAC]\05. Go On And Cry.wav

Pre-gap length 0:00:02.22

Peak level 92.3 %
Extraction speed 1.4 X
Track quality 99.9 %
Test CRC A60CB49E
Copy CRC A60CB49E
Accurately ripped (confidence 2) [08B997D2] (AR v2)
Copy OK

Track 6

Filename G:\EACRips\Les McCann\Les McCann - Another Beginning & Hustle To Survive (2000) [FLAC] {COL-CD-6608}\Another Beginning (1974) [FLAC]\06. My Soul Lies Deep.wav

Pre-gap length 0:00:02.40

Peak level 99.9 %
Extraction speed 1.5 X
Track quality 99.9 %
Test CRC CB3270F9
Copy CRC CB3270F9
Accurately ripped (confidence 2) [FBBC243B] (AR v2)
Copy OK

Track 7

Filename G:\EACRips\Les McCann\Les McCann - Another Beginning & Hustle To Survive (2000) [FLAC] {COL-CD-6608}\Another Beginning (1974) [FLAC]\07. The Morning Song.wav

Peak level 99.9 %
Extraction speed 1.5 X
Track quality 99.9 %
Test CRC E6A333C1
Copy CRC E6A333C1
Accurately ripped (confidence 2) [E2A58F4E] (AR v2)
Copy OK

Track 8

Filename G:\EACRips\Les McCann\Les McCann - Another Beginning & Hustle To Survive (2000) [FLAC] {COL-CD-6608}\Another Beginning (1974) [FLAC]\08. Someday We'll Meet Again.wav

Pre-gap length 0:00:02.40

Peak level 99.9 %
Extraction speed 2.0 X
Track quality 100.0 %
Test CRC 2B9D629D
Copy CRC 2B9D629D
Accurately ripped (confidence 2) [12A628DE] (AR v2)
Copy OK


All tracks accurately ripped

No errors occurred

End of status report

–– CUETools DB Plugin V2.1.3

[CTDB TOCID: EZnpeGSAJ0ouJVfkcgUTiwMgO7k-] disk not present in database, Submit result: EZnpeGSAJ0ouJVfkcgUTiwMgO7k- has been uploaded


==== Log checksum 2D5213627A415C23322965C417DD55BE2F4DF49BBE2FD96DBC2BE4E2301F36F6 ====
Exact Audio Copy V1.0 beta 3 from 29. August 2011

EAC extraction logfile from 3. December 2012, 20:07

Les McCann / Hustle To Survive

Used drive : HL-DT-STBD-RE BH14NS40 Adapter: 0 ID: 0

Read mode : Secure
Utilize accurate stream : Yes
Defeat audio cache : Yes
Make use of C2 pointers : No

Read offset correction : 6
Overread into Lead-In and Lead-Out : No
Fill up missing offset samples with silence : Yes
Delete leading and trailing silent blocks : No
Null samples used in CRC calculations : Yes
Used interface : Native Win32 interface for Win NT & 2000
Gap handling : Appended to previous track

Used output format : User Defined Encoder
Selected bitrate : 1024 kBit/s
Quality : High
Add ID3 tag : No
Command line compressor : C:\Program Files (x86)\Exact Audio Copy\Flac\flac.exe
Additional command line options : -8 -V -T "ARTIST=%artist%" -T "TITLE=%title%" -T "ALBUM=%albumtitle%" -T "DATE=%year%" -T "TRACKNUMBER=%tracknr%" -T "GENRE=%genre%" -T "PERFORMER=%albuminterpret%" -T "COMPOSER=%composer%" %haslyrics%–tag-from-file=LYRICS="%lyricsfile%"%haslyrics% -T "ALBUMARTIST=%albumartist%" -T "DISCNUMBER=%cdnumber%" -T "TOTALDISCS=%totalcds%" -T "TOTALTRACKS=%numtracks%" -T "COMMENT=%comment%" %source% -o %dest%


TOC of the extracted CD

Track | Start | Length | Start sector | End sector
––––––––––––––––––––––––––––-
1 | 0:00.00 | 5:18.10 | 0 | 23859
2 | 5:18.10 | 4:18.15 | 23860 | 43224
3 | 9:36.25 | 4:04.10 | 43225 | 61534
4 | 13:40.35 | 8:05.72 | 61535 | 97981
5 | 21:46.32 | 4:31.10 | 97982 | 118316
6 | 26:17.42 | 5:10.08 | 118317 | 141574
7 | 31:27.50 | 4:15.22 | 141575 | 160721
8 | 35:42.72 | 4:12.33 | 160722 | 179654
9 | 39:55.30 | 5:12.27 | 179655 | 203081


Track 1

Filename G:\EACRips\Les McCann\Les McCann - Another Beginning & Hustle To Survive (2000) [FLAC] {COL-CD-6608}\Hustle To Survive (1975) [FLAC]\01. Us.wav

Pre-gap length 0:00:02.00

Peak level 99.9 %
Extraction speed 4.3 X
Track quality 100.0 %
Test CRC 35F8D35E
Copy CRC 35F8D35E
Accurately ripped (confidence 2) [F3BD178C] (AR v2)
Copy OK

Track 2

Filename G:\EACRips\Les McCann\Les McCann - Another Beginning & Hustle To Survive (2000) [FLAC] {COL-CD-6608}\Hustle To Survive (1975) [FLAC]\02. Changing Seasons.wav

Pre-gap length 0:00:02.30

Peak level 96.2 %
Extraction speed 3.9 X
Track quality 100.0 %
Test CRC 551F959C
Copy CRC 551F959C
Accurately ripped (confidence 2) [AD1105B9] (AR v2)
Copy OK

Track 3

Filename G:\EACRips\Les McCann\Les McCann - Another Beginning & Hustle To Survive (2000) [FLAC] {COL-CD-6608}\Hustle To Survive (1975) [FLAC]\03. Got To Hustle To Survive.wav

Pre-gap length 0:00:02.37

Peak level 99.9 %
Extraction speed 3.2 X
Track quality 100.0 %
Test CRC BB0DF8F8
Copy CRC BB0DF8F8
Accurately ripped (confidence 2) [CABDD583] (AR v2)
Copy OK

Track 4

Filename G:\EACRips\Les McCann\Les McCann - Another Beginning & Hustle To Survive (2000) [FLAC] {COL-CD-6608}\Hustle To Survive (1975) [FLAC]\04. Butterflies.wav

Pre-gap length 0:00:02.24

Peak level 99.9 %
Extraction speed 2.7 X
Track quality 100.0 %
Test CRC 717ED933
Copy CRC 717ED933
Accurately ripped (confidence 2) [B401BB45] (AR v2)
Copy OK

Track 5

Filename G:\EACRips\Les McCann\Les McCann - Another Beginning & Hustle To Survive (2000) [FLAC] {COL-CD-6608}\Hustle To Survive (1975) [FLAC]\05. Says Who Says What.wav

Pre-gap length 0:00:02.29

Peak level 99.9 %
Extraction speed 2.8 X
Track quality 100.0 %
Test CRC 7F90335B
Copy CRC 7F90335B
Accurately ripped (confidence 2) [623CDD34] (AR v2)
Copy OK

Track 6

Filename G:\EACRips\Les McCann\Les McCann - Another Beginning & Hustle To Survive (2000) [FLAC] {COL-CD-6608}\Hustle To Survive (1975) [FLAC]\06. Well We Ever Find Our Fathers.wav

Pre-gap length 0:00:02.40

Peak level 90.5 %
Extraction speed 2.7 X
Track quality 99.9 %
Test CRC 60E2A818
Copy CRC 60E2A818
Accurately ripped (confidence 2) [BD6362A0] (AR v2)
Copy OK

Track 7

Filename G:\EACRips\Les McCann\Les McCann - Another Beginning & Hustle To Survive (2000) [FLAC] {COL-CD-6608}\Hustle To Survive (1975) [FLAC]\07. Well, Cuss My Daddy.wav

Pre-gap length 0:00:01.84

Peak level 99.9 %
Extraction speed 2.7 X
Track quality 99.9 %
Test CRC DB7E36EF
Copy CRC DB7E36EF
Accurately ripped (confidence 2) [6D983E1E] (AR v2)
Copy OK

Track 8

Filename G:\EACRips\Les McCann\Les McCann - Another Beginning & Hustle To Survive (2000) [FLAC] {COL-CD-6608}\Hustle To Survive (1975) [FLAC]\08. Why Is Now.wav

Pre-gap length 0:00:03.09

Peak level 90.4 %
Extraction speed 3.0 X
Track quality 100.0 %
Test CRC 09CAC665
Copy CRC 09CAC665
Accurately ripped (confidence 2) [36368310] (AR v2)
Copy OK

Track 9

Filename G:\EACRips\Les McCann\Les McCann - Another Beginning & Hustle To Survive (2000) [FLAC] {COL-CD-6608}\Hustle To Survive (1975) [FLAC]\09. Let Your Learning Be Your Eyes.wav

Pre-gap length 0:00:02.20

Peak level 97.7 %
Extraction speed 1.4 X
Track quality 99.9 %
Test CRC 1BD2D0F5
Copy CRC 1BD2D0F5
Accurately ripped (confidence 2) [572663AD] (AR v2)
Copy OK


All tracks accurately ripped

No errors occurred

End of status report

–– CUETools DB Plugin V2.1.3

[CTDB TOCID: nz2m0V3nW5zCr2gpVK3w9O5ISpA-] disk not present in database, Submit result: nz2m0V3nW5zCr2gpVK3w9O5ISpA- has been uploaded


==== Log checksum 0C85B4DB4D22E0FF28AD496F8E2248C10744BA69F46A6C962C353DCB44160625 ====

Les McCann - Another Beginning & Hustle To Survive (2000) [2CDs] {Collectables}


Thanks to the original ripper