Tags
Language
Tags

Limp Bizkit - Greatest Hitz (2005) [Japanese Ed.]

Posted By: v3122
Limp Bizkit - Greatest Hitz (2005) [Japanese Ed.]

Limp Bizkit - Greatest Hitz (2005)
EAC | Flac(Image) + Cue + Log & MP3 CBR 320Kbps
Flip/Geffen Records, UICS-1107 | ~ 569 or 183 Mb | Artwork(jpg) -> 21 Mb
Nu Metal

Six months after Limp Bizkit released The Unquestionable Truth, Pt. 1 to near universal apathy – which is what can happen when you release an album without any promotion – the band rushed out the compilation Greatest Hitz, a generous 17-track stroll through the past. Frankly, it's hard to imagine how this collection could have been executed better. While this may not contain anything from The Unquestionable Truth, Pt. 1 – which is actually kind of too bad, since it was a much better album than its 2003 predecessor, Results May Vary, but a cardinal rule of hits (or hitz) albums is that they should contain songs that people actually heard – it does contain every major MTV or active rock hit the group had. Two minor charting singles are MIA – 2000's "Crushed" and 2004's "Almost Over," to be precise – but anything anybody remembers is here. There's their first single, "Counterfeit"; there's "Faith," the first of their never-ending series of embarrassing covers, is here, along with their worst ("Behind Blue Eyes") and their latest (a monumentally silly medley of Mötley Crüe's "Home Sweet Home" and the Verve's "Bittersweet Symphony" – one of three new songs here – that sounds as if it were recorded alone by Fred Durst on Apple's GarageBand application); there are the big hits "Nookie," "Break Stuff," "Rollin' (Air Raid Vehicle)," "My Way," and "My Generation"; and there's "Take a Look Around," their contribution to the Mission Impossible 2 soundtrack, which is less forgettable than the three selections from Results May Vary. None of this has aged well – as a matter of fact, it's aged incredibly quickly, sounding older than alt-rock hits from the mid-'90s – but that's almost beside the point, because this does its job well, and listeners who want to have some Limp Bizkit in their collection will find this to provide them with more of what they want than any other Bizkit dizc.

by Stephen Thomas Erlewine , allmusic
Limp Bizkit - Greatest Hitz (2005):

Limp Bizkit - Greatest Hitz (2005) [Japanese Ed.]

Tracklist:

01. Counterfeit (4:48)
02. Faith (2:26)
03. Nookie (4:26)
04. Break Stuff (2:46)
05. Re-Arranged (5:54)
06. N 2 Gether Now Feat. Method Man (3:55)
07. Take A Look Around (5:19)
08. My Generation (3:41)
09. Rollin' (Air Raid Vehicle) (3:33)
10. My Way (4:33)
11. Boiler (5:44)
12. Eat You Alive (3:57)
13. Behind Blue Eyes (4:29)
14. Build A Bridge (3:56)
15. Why (Unrelesed Bonus Track) (4:05)
16. Lean On Me (Unrelesed Bonus Track) (4:25)
17. Home Sweet Home / Bittersweet Symphony (Unrelesed Bonus Track) (3:51)
18. The Truth (UK/Japan Bonus Track) (5:25)

Exact Audio Copy V0.99 prebeta 5 from 4. May 2009

EAC extraction logfile from 17. May 2010, 11:43

Limp Bizkit / Greatest Hitz (Japan Edition)

Used drive : ASUS DRW-1814BLT Adapter: 5 ID: 0

Read mode : Secure
Utilize accurate stream : Yes
Defeat audio cache : Yes
Make use of C2 pointers : No

Read offset correction : 6
Overread into Lead-In and Lead-Out : No
Fill up missing offset samples with silence : Yes
Delete leading and trailing silent blocks : No
Null samples used in CRC calculations : Yes
Used interface : Native Win32 interface for Win NT & 2000

Used output format : User Defined Encoder
Selected bitrate : 1024 kBit/s
Quality : High
Add ID3 tag : No
Command line compressor : C:\Program Files (x86)\Exact Audio Copy\wavpack.exe
Additional command line options : -h %s %d


TOC of the extracted CD

Track | Start | Length | Start sector | End sector
––––––––––––––––––––––––––––-
1 | 0:00.00 | 4:48.09 | 0 | 21608
2 | 4:48.09 | 2:26.53 | 21609 | 32611
3 | 7:14.62 | 4:26.03 | 32612 | 52564
4 | 11:40.65 | 2:46.49 | 52565 | 65063
5 | 14:27.39 | 5:54.57 | 65064 | 91670
6 | 20:22.21 | 3:55.59 | 91671 | 109354
7 | 24:18.05 | 5:19.68 | 109355 | 133347
8 | 29:37.73 | 3:41.06 | 133348 | 149928
9 | 33:19.04 | 3:33.66 | 149929 | 165969
10 | 36:52.70 | 4:33.10 | 165970 | 186454
11 | 41:26.05 | 5:44.46 | 186455 | 212300
12 | 47:10.51 | 3:57.58 | 212301 | 230133
13 | 51:08.34 | 4:29.29 | 230134 | 250337
14 | 55:37.63 | 3:56.09 | 250338 | 268046
15 | 59:33.72 | 4:05.70 | 268047 | 286491
16 | 63:39.67 | 4:27.42 | 286492 | 306558
17 | 68:07.34 | 4:01.61 | 306559 | 324694
18 | 72:09.20 | 5:25.33 | 324695 | 349102


Range status and errors

Selected range

Filename C:\Users\Admin\Desktop\2005 - Greatest Hitz (Japan Edition)\Limp Bizkit - Greatest Hitz (Japan Edition).wav

Peak level 100.0 %
Range quality 100.0 %
Test CRC 3559BF13
Copy CRC 3559BF13
Copy OK

No errors occurred


AccurateRip summary

Track 1 accurately ripped (confidence 2) [28EC12F2]
Track 2 accurately ripped (confidence 2) [18E496DB]
Track 3 accurately ripped (confidence 2) [E2389EF8]
Track 4 accurately ripped (confidence 2) [BBA0125D]
Track 5 accurately ripped (confidence 2) [E57E481E]
Track 6 accurately ripped (confidence 2) [EC4F8CBD]
Track 7 accurately ripped (confidence 2) [B12D58AB]
Track 8 accurately ripped (confidence 2) [8E90D5F3]
Track 9 accurately ripped (confidence 2) [BC2564F6]
Track 10 accurately ripped (confidence 2) [0938AE02]
Track 11 accurately ripped (confidence 2) [831250C5]
Track 12 accurately ripped (confidence 2) [6708150F]
Track 13 accurately ripped (confidence 2) [BC899A4B]
Track 14 accurately ripped (confidence 2) [7BBADCF2]
Track 15 accurately ripped (confidence 2) [BEBBA20E]
Track 16 accurately ripped (confidence 2) [4FE677A6]
Track 17 accurately ripped (confidence 2) [7BF657EC]
Track 18 accurately ripped (confidence 2) [DD9B435E]

All tracks accurately ripped

End of status report


[CUETools log; Date: 04.07.2021 17:59:18; Version: 2.1.4]
[AccurateRip ID: 00316197-02971875-f5122e12] found.
Track [ CRC | V2 ] Status
01 [28ec12f2|a2278f5f] (05+12/47) Accurately ripped
02 [18e496db|c8b918b9] (05+12/48) Accurately ripped
03 [e2389ef8|d28179fc] (05+14/48) Accurately ripped
04 [bba0125d|a6458297] (05+12/47) Accurately ripped
05 [e57e481e|2fa1cfcd] (05+13/47) Accurately ripped
06 [ec4f8cbd|f3decbea] (05+13/49) Accurately ripped
07 [b12d58ab|027c754c] (05+13/49) Accurately ripped
08 [8e90d5f3|034e1438] (05+13/48) Accurately ripped
09 [bc2564f6|23fa8750] (05+12/48) Accurately ripped
10 [0938ae02|09b91bf1] (05+13/49) Accurately ripped
11 [831250c5|201a7e39] (05+12/47) Accurately ripped
12 [6708150f|01e8ed57] (05+12/47) Accurately ripped
13 [bc899a4b|4fbaabc2] (05+12/51) Accurately ripped
14 [7bbadcf2|151c1f53] (05+12/49) Accurately ripped
15 [bebba20e|139bd9d9] (05+12/48) Accurately ripped
16 [4fe677a6|3f825850] (05+12/46) Accurately ripped
17 [7bf657ec|d3fb6961] (05+12/48) Accurately ripped
18 [dd9b435e|7151cb7e] (05+13/48) Accurately ripped
Offsetted by 520:
01 [6c31faa8] (08/47) Accurately ripped
02 [04803a12] (08/48) Accurately ripped
03 [08cc27e5] (08/48) Accurately ripped
04 [689166c4] (08/47) Accurately ripped
05 [4aa933ef] (08/47) Accurately ripped
06 [70972ad0] (08/49) Accurately ripped
07 [a5ed0e8d] (08/49) Accurately ripped
08 [15e84d9c] (08/48) Accurately ripped
09 [d635f09f] (08/48) Accurately ripped
10 [f7948b0c] (08/49) Accurately ripped
11 [e227fb32] (08/47) Accurately ripped
12 [f1bf0d24] (08/47) Accurately ripped
13 [2c05561d] (08/51) Accurately ripped
14 [50a09319] (08/49) Accurately ripped
15 [e506c6c6] (08/48) Accurately ripped
16 [4c70f3f3] (08/46) Accurately ripped
17 [7b53505c] (08/48) Accurately ripped
18 [14437487] (08/48) Accurately ripped
Offsetted by 502:
01 [d6e0bc8f] (00/47) No match (V2 was not tested)
02 [c0afe605] (00/48) No match (V2 was not tested)
03 [c3b46a1b] (00/48) No match (V2 was not tested)
04 [720ab129] (00/47) No match (V2 was not tested)
05 [fe83bdb0] (00/47) No match (V2 was not tested)
06 [2c5b7908] (00/49) No match (V2 was not tested)
07 [50a81e5f] (00/49) No match (V2 was not tested)
08 [b47decff] (00/48) No match (V2 was not tested)
09 [d55ad518] (00/48) No match (V2 was not tested)
10 [e7e5d526] (00/49) No match (V2 was not tested)
11 [eb1a3c95] (00/47) No match (V2 was not tested)
12 [cefeafbc] (00/47) No match (V2 was not tested)
13 [3a5d8765] (02/51) Accurately ripped
14 [181a83e7] (00/49) No match (V2 was not tested)
15 [ea9978f7] (00/48) No match (V2 was not tested)
16 [41343b56] (00/46) No match (V2 was not tested)
17 [1e58c346] (00/48) No match (V2 was not tested)
18 [6f0a1d05] (00/48) No match (V2 was not tested)

Track Peak [ CRC32 ] [W/O NULL] [ LOG ]
– 99,9 [3559BF13] [89D5A9A3] CRC32
01 96,6 [A82388F4] [A76A4D89]
02 96,6 [B14C5156] [56D314FF]
03 96,6 [3432F62A] [008FB15F]
04 96,6 [79BACB4B] [6856891A]
05 96,6 [0EAA55FB] [6233E42D]
06 96,6 [D74CEB0A] [B5FCE7F7]
07 96,6 [70CA4747] [B92AC893]
08 96,6 [1EBC3A8E] [BFB9E8E6]
09 96,6 [86C25A92] [2D437684]
10 96,6 [D086CBAA] [EC64977B]
11 96,6 [9E10B5A1] [59400A99]
12 96,6 [E8BD139A] [2470AC25]
13 96,6 [67B6ADF5] [17278E65]
14 96,6 [74AFAC5F] [07169ACF]
15 96,6 [50DA6D56] [6B4E29BD]
16 96,6 [0A26DC79] [E3DCDADB]
17 96,6 [2A78F3A0] [385D2C82]
18 99,9 [736F759D] [58A60C6E]


Limp Bizkit - Greatest Hitz (2005) [Japanese Ed.]

All thanks go to the original releaser

Limp Bizkit in my Blog

Download Limp Bizkit - Greatest Hitz (2005):