Tags
Language
Tags

Lindisfarne - Nicely Out Of Tune (1970) [Re-Up]

Posted By: Designol
Lindisfarne - Nicely Out Of Tune (1970) [Re-Up]

Lindisfarne - Nicely Out Of Tune (1970)
EAC | FLAC | Tracks (Cue&Log) ~ 316 Mb | Mp3 (CBR320) ~ 143 Mb | Scans included
British Folk-Rock, Folk-Prog, Psychedelic | Label: Virgin | # CASCD 1025 | 00:53:01

Easily the best album the group ever recorded, Nicely Out Of Tune is one of the prettiest folk-rock albums of the late 1960s. If Lindisfarne had never recorded anything else, they'd be one of the most fondly remembered acts of their era just for this album. "Lady Eleanor" is a very pretty tune that manages to incorporate elegant mandolin over some heavy rock riffing. "Road To Kingdom Come" is closer in spirit to the group's usual pub-rock sound, a singalong-type number with lots of really crunchy harmonica, mandolin, and fiddle, and a really catchy chorus – "Jackhammer Blues" is pretty nearly as good a rocker. But "Winter Song" is one of the gentlest, most haunting folk ballads of its period, almost too pretty to have come from a rock band, and "Alan In The River With Flowers" isn't far behind. The rest is in the same class and league, and as a bonus the CD contains two lost B-sides, "Knackers Yard Blues" and "Nothing But The Marvelous Is Beautiful" – they're not bad, either.

Review by Bruce Eder, Allmusic.com

Lindisfarne - Nicely Out Of Tune (1970) [Re-Up]



Tracklist:

01. Lady Eleanor (4:16)
02. Road To Kingdom Come (4:15)
03. Winter Song (5:13)
04. Turn A Deaf Ear (3:56)
05. Clear White Light - Part 2 (4:03)
06. We Can Swing Together (5:48)
07. Alan In The River With Flowers (3:09)
08. Down (3:11)
09. The Things I Should Have Said (4:03)
10. Jackhammer Blues (3:26)
11. Scarecrow Song (3:21)
12. Knackers Yard Blues (3:38)
13. Nothing But The Marvellous Is Beautiful (4:44)


Exact Audio Copy V1.0 beta 3 from 29. August 2011

EAC extraction logfile from 25. November 2016, 2:49

Lindisfarne / Nicely Out Of Tune

Used drive : HL-DT-STDVDRAM GH24NS90 Adapter: 1 ID: 0

Read mode : Secure
Utilize accurate stream : Yes
Defeat audio cache : Yes
Make use of C2 pointers : No

Read offset correction : 6
Overread into Lead-In and Lead-Out : No
Fill up missing offset samples with silence : Yes
Delete leading and trailing silent blocks : No
Null samples used in CRC calculations : Yes
Used interface : Native Win32 interface for Win NT & 2000
Gap handling : Appended to previous track

Used output format : User Defined Encoder
Selected bitrate : 1024 kBit/s
Quality : High
Add ID3 tag : No
Command line compressor : C:\Program Files (x86)\FLAC\metaflac.exe
Additional command line options : -8


TOC of the extracted CD

Track | Start | Length | Start sector | End sector
––––––––––––––––––––––––––––-
1 | 0:00.00 | 4:15.45 | 0 | 19169
2 | 4:15.45 | 4:14.60 | 19170 | 38279
3 | 8:30.30 | 5:13.22 | 38280 | 61776
4 | 13:43.52 | 3:56.18 | 61777 | 79494
5 | 17:39.70 | 4:02.47 | 79495 | 97691
6 | 21:42.42 | 5:47.50 | 97692 | 123766
7 | 27:30.17 | 3:09.00 | 123767 | 137941
8 | 30:39.17 | 3:10.63 | 137942 | 152254
9 | 33:50.05 | 4:02.57 | 152255 | 170461
10 | 37:52.62 | 3:25.45 | 170462 | 185881
11 | 41:18.32 | 3:20.55 | 185882 | 200936
12 | 44:39.12 | 3:37.70 | 200937 | 217281
13 | 48:17.07 | 4:43.50 | 217282 | 238556


Track 1

Filename C:\Exact Audio Copy\Lindisfarne\Nicely Out Of Tune\01. Lady Eleanor.wav

Pre-gap length 0:00:02.00

Peak level 84.8 %
Extraction speed 0.9 X
Track quality 99.9 %
Test CRC 82B60AFD
Copy CRC 82B60AFD
Accurately ripped (confidence 5) [D6B466D8] (AR v2)
Copy OK

Track 2

Filename C:\Exact Audio Copy\Lindisfarne\Nicely Out Of Tune\02. Road To Kingdom Come.wav

Pre-gap length 0:00:02.40

Peak level 100.0 %
Extraction speed 1.1 X
Track quality 100.0 %
Test CRC 3A0B94D9
Copy CRC 3A0B94D9
Accurately ripped (confidence 5) [3F4B9111] (AR v2)
Copy OK

Track 3

Filename C:\Exact Audio Copy\Lindisfarne\Nicely Out Of Tune\03. Winter Song.wav

Pre-gap length 0:00:03.03

Peak level 85.5 %
Extraction speed 1.3 X
Track quality 100.0 %
Test CRC 5FB634A1
Copy CRC 5FB634A1
Accurately ripped (confidence 5) [665DAAE1] (AR v2)
Copy OK

Track 4

Filename C:\Exact Audio Copy\Lindisfarne\Nicely Out Of Tune\04. Turn A Deaf Ear.wav

Pre-gap length 0:00:03.67

Peak level 100.0 %
Extraction speed 1.4 X
Track quality 100.0 %
Test CRC A4016E97
Copy CRC A4016E97
Accurately ripped (confidence 5) [EED483E1] (AR v2)
Copy OK

Track 5

Filename C:\Exact Audio Copy\Lindisfarne\Nicely Out Of Tune\05. Clear White Light - Part 2.wav

Pre-gap length 0:00:02.48

Peak level 99.6 %
Extraction speed 1.4 X
Track quality 100.0 %
Test CRC C933D6B3
Copy CRC C933D6B3
Accurately ripped (confidence 5) [BD5E3212] (AR v2)
Copy OK

Track 6

Filename C:\Exact Audio Copy\Lindisfarne\Nicely Out Of Tune\06. We Can Swing Together.wav

Pre-gap length 0:00:00.50

Peak level 91.7 %
Extraction speed 1.6 X
Track quality 100.0 %
Test CRC 2FB55F84
Copy CRC 2FB55F84
Accurately ripped (confidence 5) [57FE3810] (AR v2)
Copy OK

Track 7

Filename C:\Exact Audio Copy\Lindisfarne\Nicely Out Of Tune\07. Alan In The River With Flowers.wav

Pre-gap length 0:00:03.45

Peak level 100.0 %
Extraction speed 1.6 X
Track quality 100.0 %
Test CRC 2041AD9D
Copy CRC 2041AD9D
Accurately ripped (confidence 5) [2EFB8CE2] (AR v2)
Copy OK

Track 8

Filename C:\Exact Audio Copy\Lindisfarne\Nicely Out Of Tune\08. Down.wav

Pre-gap length 0:00:03.62

Peak level 100.0 %
Extraction speed 1.6 X
Track quality 100.0 %
Test CRC B98C73A1
Copy CRC B98C73A1
Accurately ripped (confidence 5) [4180DB82] (AR v2)
Copy OK

Track 9

Filename C:\Exact Audio Copy\Lindisfarne\Nicely Out Of Tune\09. The Things I Should Have Said.wav

Pre-gap length 0:00:01.63

Peak level 88.0 %
Extraction speed 1.8 X
Track quality 100.0 %
Test CRC 927DB8F4
Copy CRC 927DB8F4
Accurately ripped (confidence 5) [AA23C5AF] (AR v2)
Copy OK

Track 10

Filename C:\Exact Audio Copy\Lindisfarne\Nicely Out Of Tune\10. Jackhammer Blues.wav

Pre-gap length 0:00:02.07

Peak level 100.0 %
Extraction speed 1.8 X
Track quality 100.0 %
Test CRC 6433F888
Copy CRC 6433F888
Accurately ripped (confidence 5) [C6AD69C9] (AR v2)
Copy OK

Track 11

Filename C:\Exact Audio Copy\Lindisfarne\Nicely Out Of Tune\11. Scarecrow Song.wav

Peak level 92.8 %
Extraction speed 1.8 X
Track quality 100.0 %
Test CRC 63894DD3
Copy CRC 63894DD3
Accurately ripped (confidence 5) [A9FD627B] (AR v2)
Copy OK

Track 12

Filename C:\Exact Audio Copy\Lindisfarne\Nicely Out Of Tune\12. Knackers Yard Blues.wav

Peak level 97.0 %
Extraction speed 1.9 X
Track quality 100.0 %
Test CRC 0CCE7C56
Copy CRC 0CCE7C56
Accurately ripped (confidence 5) [E772C1CB] (AR v2)
Copy OK

Track 13

Filename C:\Exact Audio Copy\Lindisfarne\Nicely Out Of Tune\13. Nothing But The Marvellous Is Beautiful.wav

Pre-gap length 0:00:00.20

Peak level 96.6 %
Extraction speed 2.1 X
Track quality 100.0 %
Test CRC 3A4DC366
Copy CRC 3A4DC366
Accurately ripped (confidence 5) [B12AF7A6] (AR v2)
Copy OK


All tracks accurately ripped

No errors occurred

End of status report

–– CUETools DB Plugin V2.1.6

[CTDB TOCID: EWIhyI.MVUd_qOwcn4E5ustXPaU-] found
Submit result: EWIhyI.MVUd_qOwcn4E5ustXPaU- has been confirmed
Track | CTDB Status
1 | (3/3) Accurately ripped
2 | (3/3) Accurately ripped
3 | (3/3) Accurately ripped
4 | (3/3) Accurately ripped
5 | (3/3) Accurately ripped
6 | (3/3) Accurately ripped
7 | (3/3) Accurately ripped
8 | (3/3) Accurately ripped
9 | (3/3) Accurately ripped
10 | (3/3) Accurately ripped
11 | (3/3) Accurately ripped
12 | (3/3) Accurately ripped
13 | (3/3) Accurately ripped


==== Log checksum 25D824C28FC74073400D52D36C3CA90F135190BA990C4860D7E180B2F136F9D1 ====

foobar2000 1.2 / Dynamic Range Meter 1.1.1
log date: 2017-03-26 13:34:53

––––––––––––––––––––––––––––––––––––––––
Analyzed: Lindisfarne / Nicely Out Of Tune
––––––––––––––––––––––––––––––––––––––––

DR Peak RMS Duration Track
––––––––––––––––––––––––––––––––––––––––
DR12 -1.43 dB -17.23 dB 4:16 01-Lady Eleanor
DR12 0.00 dB -13.56 dB 4:15 02-Road To Kingdom Come
DR12 -1.35 dB -17.38 dB 5:13 03-Winter Song
DR12 0.00 dB -14.72 dB 3:56 04-Turn A Deaf Ear
DR12 -0.03 dB -14.51 dB 4:03 05-Clear White Light - Part 2
DR12 -0.74 dB -16.37 dB 5:48 06-We Can Swing Together
DR11 0.00 dB -16.36 dB 3:09 07-Alan In The River With Flowers
DR13 0.00 dB -15.37 dB 3:11 08-Down
DR13 -1.10 dB -17.52 dB 4:03 09-The Things I Should Have Said
DR13 0.00 dB -14.86 dB 3:26 10-Jackhammer Blues
DR13 -0.64 dB -17.81 dB 3:21 11-Scarecrow Song
DR14 -0.26 dB -18.21 dB 3:38 12-Knackers Yard Blues
DR12 -0.30 dB -15.27 dB 4:44 13-Nothing But The Marvellous Is Beautiful
––––––––––––––––––––––––––––––––––––––––

Number of tracks: 13
Official DR value: DR12

Samplerate: 44100 Hz
Channels: 2
Bits per sample: 16
Bitrate: 751 kbps
Codec: FLAC
================================================================================

Lindisfarne - Nicely Out Of Tune (1970) [Re-Up]

Lindisfarne - Nicely Out Of Tune (1970) [Re-Up]