Tags
Language
Tags
January 2023
Su Mo Tu We Th Fr Sa
1 2 3 4 5 6 7
8 9 10 11 12 13 14
15 16 17 18 19 20 21
22 23 24 25 26 27 28
29 30 31 1 2 3 4

Lionel Hampton - Midnight Sun [Recorded 1946-47] (1993)

Posted By: gribovar
Lionel Hampton - Midnight Sun [Recorded 1946-47] (1993)

Lionel Hampton - Midnight Sun [Recorded 1946-47] (1993)
EAC Rip | FLAC (tracks+.cue+log) - 202 MB | Covers (4 MB) included
Genre: Jazz, Swing, Big Band | RAR 3% Rec. | Label: MCA Records/GRP Records (GRD-625)

Although firmly identified with Benny Goodman and the swing era, vibraphonist Lionel Hampton led one of the most bop-oriented and forward-looking big bands of the mid-to-late '40s; for proof of that check out "Mingus Fingers" (by Charles Mingus) on this CD. This set reissues some of Hampton's most boppish sides from 1946-47 along with the original version of "Midnight Sun" and is full of extroverted solos and exciting ensembles. Although tenorman Arnett Cobb (heard in the earlier selections) and pianist Milt Buckner are the best-known sidemen, such musicians as the screaming trumpeters Jimmy Nottingham and Leo "the Whistler" Sheppard and tenors Morris Lane, John Sparrow and the young Johnny Griffin provide their own strong moments.
Tracklist:
01. Rockin' in Rhythm (parts I & II)
02. Gay Notes
03. Hamp's Salty Blues
04. Limehouse Blues
05. Airmail Special (parts I & II)
06. Cobb's Idea
07. Tempo's Birthday
08. Double Talk
09. 'S Wonderful
10. Jack the Fox Boogie
11. How High the Moon
12. Hamp's Got a Duke
13. Three Minutes on 52nd Street
14. Goldwyn Stomp
15. Red Top
16. Giddy Up
17. Hawk's Nest
18. Mingus Fingers
19. Muchacho Azul
20. Midnight Sun

Total time: 01:06:56

Exact Audio Copy V0.99 prebeta 5 from 4. May 2009

EAC extraction logfile from 7. November 2009, 17:09

Lionel Hampton / Midnight Sun

Used drive : Optiarc DVD RW AD-7590A Adapter: 3 ID: 0

Read mode : Secure
Utilize accurate stream : Yes
Defeat audio cache : Yes
Make use of C2 pointers : No

Read offset correction : 48
Overread into Lead-In and Lead-Out : No
Fill up missing offset samples with silence : Yes
Delete leading and trailing silent blocks : No
Null samples used in CRC calculations : Yes
Used interface : Native Win32 interface for Win NT & 2000
Gap handling : Appended to previous track

Used output format : User Defined Encoder
Selected bitrate : 192 kBit/s
Quality : High
Add ID3 tag : No
Command line compressor : C:\Program Files\Exact Audio Copy\Flac\flac.exe
Additional command line options : -8 -V -T "ARTIST=%a" -T "TITLE=%t" -T "ALBUM=%g" -T "DATE=%y" -T "TRACKNUMBER=%n" -T "TOTALTRACKS=%x" -T "GENRE=%m" -T "ALBUM ARTIST=%v" -T "ALBUMARTIST=%v" -T "COMMENT=EAC V0.99 prebeta 5, Secure Mode, Test & Copy, Accurat


TOC of the extracted CD

Track | Start | Length | Start sector | End sector
––––––––––––––––––––––––––––-
1 | 0:00.00 | 5:55.10 | 0 | 26634
2 | 5:55.10 | 2:31.52 | 26635 | 38011
3 | 8:26.62 | 3:10.40 | 38012 | 52301
4 | 11:37.27 | 2:54.08 | 52302 | 65359
5 | 14:31.35 | 6:01.12 | 65360 | 92446
6 | 20:32.47 | 3:10.05 | 92447 | 106701
7 | 23:42.52 | 2:48.53 | 106702 | 119354
8 | 26:31.30 | 3:02.55 | 119355 | 133059
9 | 29:34.10 | 3:19.00 | 133060 | 147984
10 | 32:53.10 | 2:57.02 | 147985 | 161261
11 | 35:50.12 | 3:17.23 | 161262 | 176059
12 | 39:07.35 | 2:40.57 | 176060 | 188116
13 | 41:48.17 | 3:13.58 | 188117 | 202649
14 | 45:02.00 | 2:50.00 | 202650 | 215399
15 | 47:52.00 | 3:06.65 | 215400 | 229414
16 | 50:58.65 | 3:13.57 | 229415 | 243946
17 | 54:12.47 | 3:06.55 | 243947 | 257951
18 | 57:19.27 | 3:08.10 | 257952 | 272061
19 | 60:27.37 | 3:10.13 | 272062 | 286324
20 | 63:37.50 | 3:18.72 | 286325 | 301246


Track 1

Filename C:\WK\Lionel Hampton - Midnight Sun\01 - Rockin' in Rhythm (parts I & II).wav

Pre-gap length 0:00:02.00

Peak level 100.0 %
Track quality 100.0 %
Test CRC 16B10EFC
Copy CRC 16B10EFC
Accurately ripped (confidence 2) [5518518E]
Copy OK

Track 2

Filename C:\WK\Lionel Hampton - Midnight Sun\02 - Gay Notes.wav

Pre-gap length 0:00:01.53

Peak level 100.0 %
Track quality 100.0 %
Test CRC 4EB94CED
Copy CRC 4EB94CED
Accurately ripped (confidence 2) [49DA5040]
Copy OK

Track 3

Filename C:\WK\Lionel Hampton - Midnight Sun\03 - Hamp's Salty Blues.wav

Pre-gap length 0:00:01.74

Peak level 100.0 %
Track quality 100.0 %
Test CRC F3BF6D96
Copy CRC F3BF6D96
Accurately ripped (confidence 2) [7EE69709]
Copy OK

Track 4

Filename C:\WK\Lionel Hampton - Midnight Sun\04 - Limehouse Blues.wav

Pre-gap length 0:00:02.14

Peak level 97.7 %
Track quality 100.0 %
Test CRC E7F68DA8
Copy CRC E7F68DA8
Accurately ripped (confidence 2) [1498A153]
Copy OK

Track 5

Filename C:\WK\Lionel Hampton - Midnight Sun\05 - Airmail Special (parts I & II).wav

Pre-gap length 0:00:02.09

Peak level 99.6 %
Track quality 100.0 %
Test CRC F3D9EC71
Copy CRC F3D9EC71
Accurately ripped (confidence 2) [8B204097]
Copy OK

Track 6

Filename C:\WK\Lionel Hampton - Midnight Sun\06 - Cobb's Idea.wav

Pre-gap length 0:00:00.90

Peak level 98.2 %
Track quality 100.0 %
Test CRC 749ABD01
Copy CRC 749ABD01
Accurately ripped (confidence 2) [60F255C1]
Copy OK

Track 7

Filename C:\WK\Lionel Hampton - Midnight Sun\07 - Tempo's Birthday.wav

Pre-gap length 0:00:01.58

Peak level 100.0 %
Track quality 100.0 %
Test CRC 17EA6DB5
Copy CRC 17EA6DB5
Accurately ripped (confidence 2) [27BE132B]
Copy OK

Track 8

Filename C:\WK\Lionel Hampton - Midnight Sun\08 - Double Talk.wav

Pre-gap length 0:00:01.48

Peak level 100.0 %
Track quality 100.0 %
Test CRC 92B98920
Copy CRC 92B98920
Accurately ripped (confidence 2) [24E9B346]
Copy OK

Track 9

Filename C:\WK\Lionel Hampton - Midnight Sun\09 - 'S Wonderful.wav

Pre-gap length 0:00:01.38

Peak level 95.5 %
Track quality 100.0 %
Test CRC 5D372651
Copy CRC 5D372651
Accurately ripped (confidence 2) [25570189]
Copy OK

Track 10

Filename C:\WK\Lionel Hampton - Midnight Sun\10 - Jack the Fox Boogie.wav

Pre-gap length 0:00:01.21

Peak level 100.0 %
Track quality 100.0 %
Test CRC 83BE3EEF
Copy CRC 83BE3EEF
Accurately ripped (confidence 2) [82FD4C0B]
Copy OK

Track 11

Filename C:\WK\Lionel Hampton - Midnight Sun\11 - How High the Moon.wav

Pre-gap length 0:00:02.36

Peak level 100.0 %
Track quality 100.0 %
Test CRC 0D33BAA4
Copy CRC 0D33BAA4
Accurately ripped (confidence 2) [54C406F5]
Copy OK

Track 12

Filename C:\WK\Lionel Hampton - Midnight Sun\12 - Hamp's Got a Duke.wav

Pre-gap length 0:00:02.01

Peak level 100.0 %
Track quality 100.0 %
Test CRC D92A4289
Copy CRC D92A4289
Accurately ripped (confidence 2) [2F263350]
Copy OK

Track 13

Filename C:\WK\Lionel Hampton - Midnight Sun\13 - Three Minutes on 52nd Street.wav

Pre-gap length 0:00:01.09

Peak level 97.8 %
Track quality 100.0 %
Test CRC F38B6BEC
Copy CRC F38B6BEC
Accurately ripped (confidence 2) [048306A8]
Copy OK

Track 14

Filename C:\WK\Lionel Hampton - Midnight Sun\14 - Goldwyn Stomp.wav

Pre-gap length 0:00:01.09

Peak level 97.8 %
Track quality 99.9 %
Test CRC 1C49BF7F
Copy CRC 1C49BF7F
Accurately ripped (confidence 2) [A1B721CD]
Copy OK

Track 15

Filename C:\WK\Lionel Hampton - Midnight Sun\15 - Red Top.wav

Pre-gap length 0:00:00.81

Peak level 100.0 %
Track quality 100.0 %
Test CRC F0E9A721
Copy CRC F0E9A721
Accurately ripped (confidence 2) [6AFB2AA8]
Copy OK

Track 16

Filename C:\WK\Lionel Hampton - Midnight Sun\16 - Giddy Up.wav

Pre-gap length 0:00:01.78

Peak level 100.0 %
Track quality 100.0 %
Test CRC F256E421
Copy CRC F256E421
Accurately ripped (confidence 2) [97629640]
Copy OK

Track 17

Filename C:\WK\Lionel Hampton - Midnight Sun\17 - Hawk's Nest.wav

Pre-gap length 0:00:00.76

Peak level 100.0 %
Track quality 100.0 %
Test CRC 39A0311F
Copy CRC 39A0311F
Accurately ripped (confidence 2) [6D860E53]
Copy OK

Track 18

Filename C:\WK\Lionel Hampton - Midnight Sun\18 - Mingus Fingers.wav

Pre-gap length 0:00:01.04

Peak level 100.0 %
Track quality 100.0 %
Test CRC 5B85A9ED
Copy CRC 5B85A9ED
Accurately ripped (confidence 2) [A0DDC485]
Copy OK

Track 19

Filename C:\WK\Lionel Hampton - Midnight Sun\19 - Muchacho Azul.wav

Pre-gap length 0:00:01.14

Peak level 100.0 %
Track quality 100.0 %
Test CRC F8C3320B
Copy CRC F8C3320B
Accurately ripped (confidence 2) [6BF8EB45]
Copy OK

Track 20

Filename C:\WK\Lionel Hampton - Midnight Sun\20 - Midnight Sun.wav

Pre-gap length 0:00:02.06

Peak level 100.0 %
Track quality 100.0 %
Test CRC DCCB4150
Copy CRC DCCB4150
Accurately ripped (confidence 2) [56FAE672]
Copy OK


All tracks accurately ripped

No errors occurred

End of status report

[CUETools log; Date: 12.11.2018 22:59:36; Version: 2.1.4]
[CTDB TOCID: WQohGSz9vwOLwyKfXSuCHQM20EA-] found.
Track | CTDB Status
1 | (8/8) Accurately ripped
2 | (8/8) Accurately ripped
3 | (8/8) Accurately ripped
4 | (8/8) Accurately ripped
5 | (8/8) Accurately ripped
6 | (8/8) Accurately ripped
7 | (8/8) Accurately ripped
8 | (8/8) Accurately ripped
9 | (8/8) Accurately ripped
10 | (8/8) Accurately ripped
11 | (8/8) Accurately ripped
12 | (8/8) Accurately ripped
13 | (8/8) Accurately ripped
14 | (8/8) Accurately ripped
15 | (8/8) Accurately ripped
16 | (8/8) Accurately ripped
17 | (8/8) Accurately ripped
18 | (8/8) Accurately ripped
19 | (8/8) Accurately ripped
20 | (8/8) Accurately ripped
[AccurateRip ID: 00329a47-02d826a8-2d0fb014] found.
Track [ CRC | V2 ] Status
01 [5518518e|633243b4] (3+2/5) Accurately ripped
02 [49da5040|5b6ff7bb] (3+2/5) Accurately ripped
03 [7ee69709|11b3ae6b] (3+2/5) Accurately ripped
04 [1498a153|2dff5c70] (3+3/6) Accurately ripped
05 [8b204097|5693fa56] (3+3/6) Accurately ripped
06 [60f255c1|5a32f372] (3+3/6) Accurately ripped
07 [27be132b|3bd1065a] (3+3/6) Accurately ripped
08 [24e9b346|5d835f90] (3+3/6) Accurately ripped
09 [25570189|40bd6c1a] (3+3/6) Accurately ripped
10 [82fd4c0b|3b538be8] (3+3/6) Accurately ripped
11 [54c406f5|6c61b4c5] (3+2/5) Accurately ripped
12 [2f263350|0d0688cc] (3+2/5) Accurately ripped
13 [048306a8|5900b816] (3+2/5) Accurately ripped
14 [a1b721cd|c951190c] (3+2/5) Accurately ripped
15 [6afb2aa8|bc659192] (3+2/5) Accurately ripped
16 [97629640|45217e3e] (3+2/5) Accurately ripped
17 [6d860e53|e2e58e6d] (3+2/5) Accurately ripped
18 [a0ddc485|92c5ce04] (3+2/5) Accurately ripped
19 [6bf8eb45|d4b8b8a8] (3+2/5) Accurately ripped
20 [56fae672|81711e0c] (3+2/5) Accurately ripped

Track Peak [ CRC32 ] [W/O NULL] [ LOG ]
– 100,0 [105E0116] [3B482C75]
01 100,0 [16B10EFC] [040BF30D] CRC32
02 100,0 [4EB94CED] [D1B1670D] CRC32
03 100,0 [F3BF6D96] [918F656C] CRC32
04 97,7 [E7F68DA8] [54233015] CRC32
05 99,6 [F3D9EC71] [E79C6901] CRC32
06 98,2 [749ABD01] [79FAFF44] CRC32
07 100,0 [17EA6DB5] [E1B26BD0] CRC32
08 100,0 [92B98920] [60EAE2C9] CRC32
09 95,5 [5D372651] [971340BB] CRC32
10 100,0 [83BE3EEF] [AEDD6EC4] CRC32
11 100,0 [0D33BAA4] [D11B26FD] CRC32
12 100,0 [D92A4289] [9370F3C1] CRC32
13 97,8 [F38B6BEC] [F089E7C0] CRC32
14 97,8 [1C49BF7F] [39B6489F] CRC32
15 100,0 [F0E9A721] [89FAC877] CRC32
16 100,0 [F256E421] [8BBF8792] CRC32
17 100,0 [39A0311F] [58909D83] CRC32
18 100,0 [5B85A9ED] [5071A268] CRC32
19 100,0 [F8C3320B] [EFD48CBA] CRC32
20 100,0 [DCCB4150] [AC2627AE] CRC32

Thanks to knttk