Subcategories

Lisa Shaw - Cherry (2005) {Naked Music Recordings}

Posted By: TestTickles
Lisa Shaw - Cherry (2005) {Naked Music Recordings}

Lisa Shaw - Cherry (2005) {Naked Music Recordings}
EAC Rip | FLAC with CUE and LOG | scans | 358 mb
MP3 CBR 320 kbps | RAR | 126 mb
Genre: electronic pop, deep house, broken beat, downtempo, soul, R&B

Cherry is the 2005 debut album by Canadian vocalist Lisa Shaw. This one comes from the fine folks at Naked Music Recordings.

Lisa Shaw - Cherry (2005) {Naked Music Recordings}

01. Cherry
02. Don't Know What To Do
03. When I
04. Grown Apart
05. Push-Button
06. Hot Skin
07. Matter Of Time
08. Dim Light
09. Always
10. Born To Fly
11. Stylin'
12. It's Been A While
13. The Last Time
14. Let It Ride (Jimpster Remix) (Bonus Track)

EAC extraction logfile from 22. April 2007, 1:51 for CD
Lisa Shaw / Cherry

Used drive : PIONEER DVD RW DVR-107D Adapter: 1 ID: 0
Read mode : Secure with NO C2, accurate stream, disable cache
Read offset correction : 48
Overread into Lead-In and Lead-Out : No

Used output format : C:\Program Files\Exact Audio Copy\flac.exe (User Defined Encoder)
192 kBit/s
Additional command line options : -8 -A tukey(0.25) -A gauss(0.1875) -b 4096 -V -T "artist=%a" -T "title=%t" -T "album=%g" -T "date=%y" -T "tracknumber=%n" -T "genre=%m" %s –sector-align

Other options :
Fill up missing offset samples with silence : Yes
Delete leading and trailing silent blocks : No
Installed external ASPI interface


Track 1
Filename C:\cuntfist\FLAC\Lisa Shaw - Cherry (2005) [FLAC] {Naked Music Recordings}\01 - Cherry.wav

Pre-gap length 0:00:02.00

Peak level 80.3 %
Track quality 100.0 %
Test CRC C1BE22EC
Copy CRC C1BE22EC
Copy OK

Track 2
Filename C:\cuntfist\FLAC\Lisa Shaw - Cherry (2005) [FLAC] {Naked Music Recordings}\02 - Don't Know What To Do.wav

Pre-gap length 0:00:01.46

Peak level 93.3 %
Track quality 100.0 %
Test CRC AC0AA8DF
Copy CRC AC0AA8DF
Copy OK

Track 3
Filename C:\cuntfist\FLAC\Lisa Shaw - Cherry (2005) [FLAC] {Naked Music Recordings}\03 - When I.wav

Pre-gap length 0:00:00.82

Peak level 92.2 %
Track quality 100.0 %
Test CRC B576278D
Copy CRC B576278D
Copy OK

Track 4
Filename C:\cuntfist\FLAC\Lisa Shaw - Cherry (2005) [FLAC] {Naked Music Recordings}\04 - Grown Apart.wav

Pre-gap length 0:00:01.46

Peak level 100.0 %
Track quality 100.0 %
Test CRC D2A02F24
Copy CRC D2A02F24
Copy OK

Track 5
Filename C:\cuntfist\FLAC\Lisa Shaw - Cherry (2005) [FLAC] {Naked Music Recordings}\05 - Push-Button.wav

Peak level 100.0 %
Track quality 100.0 %
Test CRC 26C6C758
Copy CRC 26C6C758
Copy OK

Track 6
Filename C:\cuntfist\FLAC\Lisa Shaw - Cherry (2005) [FLAC] {Naked Music Recordings}\06 - Hot Skin.wav

Peak level 100.0 %
Track quality 100.0 %
Test CRC 507E3247
Copy CRC 507E3247
Copy OK

Track 7
Filename C:\cuntfist\FLAC\Lisa Shaw - Cherry (2005) [FLAC] {Naked Music Recordings}\07 - Matter Of Time.wav

Pre-gap length 0:00:01.29

Peak level 81.2 %
Track quality 100.0 %
Test CRC 3E4A02C5
Copy CRC 3E4A02C5
Copy OK

Track 8
Filename C:\cuntfist\FLAC\Lisa Shaw - Cherry (2005) [FLAC] {Naked Music Recordings}\08 - Dim Light.wav

Peak level 89.1 %
Track quality 100.0 %
Test CRC 56AB8938
Copy CRC 56AB8938
Copy OK

Track 9
Filename C:\cuntfist\FLAC\Lisa Shaw - Cherry (2005) [FLAC] {Naked Music Recordings}\09 - Always.wav

Pre-gap length 0:00:01.93

Peak level 82.2 %
Track quality 100.0 %
Test CRC 02A55231
Copy CRC 02A55231
Copy OK

Track 10
Filename C:\cuntfist\FLAC\Lisa Shaw - Cherry (2005) [FLAC] {Naked Music Recordings}\10 - Born To Fly.wav

Peak level 96.6 %
Track quality 100.0 %
Test CRC CE82CABA
Copy CRC CE82CABA
Copy OK

Track 11
Filename C:\cuntfist\FLAC\Lisa Shaw - Cherry (2005) [FLAC] {Naked Music Recordings}\11 - Stylin'.wav

Peak level 98.8 %
Track quality 100.0 %
Test CRC E2EE3D21
Copy CRC E2EE3D21
Copy OK

Track 12
Filename C:\cuntfist\FLAC\Lisa Shaw - Cherry (2005) [FLAC] {Naked Music Recordings}\12 - It's Been A While.wav

Peak level 93.3 %
Track quality 100.0 %
Test CRC DED7004E
Copy CRC DED7004E
Copy OK

Track 13
Filename C:\cuntfist\FLAC\Lisa Shaw - Cherry (2005) [FLAC] {Naked Music Recordings}\13 - The Last Time.wav

Peak level 100.0 %
Track quality 100.0 %
Test CRC D4525704
Copy CRC D4525704
Copy OK

Track 14
Filename C:\cuntfist\FLAC\Lisa Shaw - Cherry (2005) [FLAC] {Naked Music Recordings}\14 - Let It Ride (Jimpster Remix) (Bonus Track).wav

Pre-gap length 0:00:04.77

Peak level 93.3 %
Track quality 99.9 %
Test CRC 89CFD934
Copy CRC 89CFD934
Copy OK

No errors occured


End of status report


Lisa Shaw - Cherry (2005) {Naked Music Recordings}


Thank you to the original uploader.