Subcategories
Tags
Language
Tags

Loretta Lynn - Full Circle (2016) [Re-Up]

Posted By: Designol
Loretta Lynn - Full Circle (2016) [Re-Up]

Loretta Lynn - Full Circle (2016)
EAC | FLAC | Image (Cue&Log) ~ 233 Mb | Mp3 (CBR320) ~ 89 Mb | Scans ~ 131 Mb
Country | Label: Sony/Legacy | # 88875168962 | Time: 00:38:56

Full Circle is the first new studio album in over ten years from American music icon Loretta Lynn. Produced by Patsy Lynn Russell and John Carter Cash, and recorded at the Cash Cabin Studio in Hendersonville, Tennessee, Full Circle takes listeners on a journey through Loretta's musical story, from the Appalachian folk songs and gospel music she learned as a child, to new interpretations of her classic hits and country standards, to songs newly-written for the project. Drawing inspiration from personal memories and deep connections to American music, Lynn's 13 new recordings capture the essence of these songs in intimate new performances. The album is volume one of the Cash Cabin recordings, a series of new album projects imagined and created at the storied Cash Cabin Studio.

Highlights from FULL CIRCLE include "Lay Me Down," a duet with Willie Nelson; "Everything It Takes," featuring guest vocals from Elvis Costello; "Whispering Sea," a new version of the first song Loretta ever wrote; and soulful new renditions of some of Lynn's classic tunes, including a rousing renditions of "Everybody Wants to Go to Heaven" and "Fist City." The album also includes traditional Appalachian songs from Loretta's childhood such as "Black Jack David" and "I Never Will Marry." At 83 years old, Lynn's voice sounds as powerful as ever, and this new material only adds to her legend as a performer.

Full Circle is no accidental title for this, Loretta Lynn's first album after a 12-year break. Released as Lynn approaches her 83rd birthday, Full Circle not only deliberately returns the country legend to her Kentucky roots, it's constructed as a summation of her life. It opens with the first song she ever wrote – a lovelorn waltz called "Whispering Sea" – and runs through old folk tunes she sang as a child, revisits hits she had in her prime, and adds new tunes to her repertoire, all the while acknowledging that she's closer to the end of her life than the beginning. It's a weighty concept directed by co-producers John Carter Cash and Lynn's daughter Patsy Lynn Reynolds, two scions of country royalty keenly aware of the nuances of legacy and tradition. Cash and Reynolds began recording Lynn back in 2007, stockpiling hundreds of songs in the ensuing eight years. Full Circle is culled from those sessions, and while there certainly must be many equally compelling tunes lying in the vaults, the album benefits from its canny construction, touching upon so many aspects of Lynn's multi-faceted art without lingering on any single part. One of the record's attributes is its clean, simple sound. Spare but never skeletal, the record feels intimate but never haunted; it feels as if Lynn is playing songs for old friends in her living room, relying on beloved tunes and well-told stories. If there's possibly a slight contrivance in the reliance on songs about death – good as they are, "Who's Gonna Miss Me?" and "Everybody Wants to Go to Heaven" put perhaps too fine a point upon her eventual passing – these clear-eyed ruminations never feel ghoulish due to that straight-ahead sound. As produced by her daughter and family friend, Lynn is in good, trusting hands who wish to present her at her best and, more or less, that's precisely what Full Circle offers.

Review by Stephen Thomas Erlewine, Allmusic.com

Loretta Lynn at Allmusic
Loretta Lynn Website
Loretta Lynn at Wiki

Tracklist:

01. {Whispering Sea Introduction} (00:55)
02. Whispering Sea (02:16)
03. Secret Love (03:20)
04. Who's Gonna Miss Me? (02:44)
05. Black Jack David (02:09)
06. Everybody Wants To Go To Heaven (02:53)
07. Always On My Mind (03:27)
08. Wine Into Water (03:21)
09. In The Pines (03:07)
10. Band Of Gold (02:52)
11. Fist City (02:16)
12. I Never Will Marry (03:38)
13. Everything It Takes (03:01) featuring Elvis Costello
14. Lay Me Down (02:50) featuring Willie Nelson


Exact Audio Copy V1.1 from 23. June 2015

Отчёт EAC об извлечении, выполненном 26. апреля 2016, 11:06

Loretta Lynn / Full Circle

Дисковод: ATAPI iHAS122 C Adapter: 2 ID: 0

Режим чтения : Достоверность
Использование точного потока : Да
Отключение кэша аудио : Да
Использование указателей C2 : Нет

Коррекция смещения при чтении : 6
Способность читать области Lead-in и Lead-out : Нет
Заполнение пропущенных сэмплов тишиной : Да
Удаление блоков с тишиной в начале и конце : Нет
При вычислениях CRC использовались нулевые сэмплы : Да
Интерфейс : Встроенный Win32-интерфейс для Win NT/2000

Выходной формат : Пользовательский кодировщик
Выбранный битрейт : 768 kBit/s
Качество : Высокий
Добавление ID3-тега : Нет
Утилита сжатия : C:\Program Files\Exact Audio Copy\FLAC\FLAC.EXE
Дополнительные параметры : -6 -V -T "ARTIST=%artist%" -T "TITLE=%title%" -T "ALBUM=%albumtitle%" -T "DATE=%year%" -T "TRACKNUMBER=%tracknr%" -T "GENRE=%genre%" -T "COMMENT=%comment%" -T "BAND=%albuminterpret%" -T "ALBUMARTIST=%albuminterpret%" -T "COMPOSER=%composer%" %haslyrics%–tag-from-file=LYRICS="%lyricsfile%"%haslyrics% -T "DISCNUMBER=%cdnumber%" -T "TOTALDISCS=%totalcds%" -T "TOTALTRACKS=%numtracks%" %hascover%–picture="%coverfile%"%hascover% %source% -o %dest%


TOC извлечённого CD

Трек | Старт | Длительность | Начальный сектор | Конечный сектор
––––––––––––––––––––––––––––––––––-
1 | 0:00.00 | 0:55.27 | 0 | 4151
2 | 0:55.27 | 2:16.55 | 4152 | 14406
3 | 3:12.07 | 3:20.46 | 14407 | 29452
4 | 6:32.53 | 2:44.59 | 29453 | 41811
5 | 9:17.37 | 2:09.41 | 41812 | 51527
6 | 11:27.03 | 2:53.35 | 51528 | 64537
7 | 14:20.38 | 3:27.31 | 64538 | 80093
8 | 17:47.69 | 3:21.37 | 80094 | 95205
9 | 21:09.31 | 3:07.30 | 95206 | 109260
10 | 24:16.61 | 2:52.04 | 109261 | 122164
11 | 27:08.65 | 2:16.57 | 122165 | 132421
12 | 29:25.47 | 3:38.05 | 132422 | 148776
13 | 33:03.52 | 3:01.63 | 148777 | 162414
14 | 36:05.40 | 2:50.08 | 162415 | 175172


Характеристики диапазона извлечения и сообщения об ошибках

Выбранный диапазон

Имя файла E:\Uploads 2016\Loretta Lynn - Full Circle - 2016 - 38'57''\Loretta Lynn - Full Circle.wav

Пиковый уровень 100.0 %
Скорость извлечения 3.0 X
Качество диапазона 99.9 %
CRC теста C79F8A8C
CRC копии C79F8A8C
Копирование… OK

Ошибок не произошло

Конец отчёта

–– CUETools DB Plugin V2.1.6

[CTDB TOCID: BiVTHLnhRm2Pi1N4kU6gWawCKok-] found
Submit result: BiVTHLnhRm2Pi1N4kU6gWawCKok- has been confirmed
Track | CTDB Status
1 | (23/23) Accurately ripped
2 | (23/23) Accurately ripped
3 | (23/23) Accurately ripped
4 | (23/23) Accurately ripped
5 | (23/23) Accurately ripped
6 | (23/23) Accurately ripped
7 | (23/23) Accurately ripped
8 | (23/23) Accurately ripped
9 | (23/23) Accurately ripped
10 | (23/23) Accurately ripped
11 | (23/23) Accurately ripped
12 | (23/23) Accurately ripped
13 | (23/23) Accurately ripped
14 | (23/23) Accurately ripped


==== Контрольная сумма отчёта 67B786980801A7B99BA860E3EF7410B85126861A1229DA48F176709A190B9030 ====

foobar2000 1.2 / Dynamic Range Meter 1.1.1
log date: 2016-04-29 21:23:23

––––––––––––––––––––––––––––––––––––––––
Analyzed: Loretta Lynn & Elvis Costello / Full Circle (1)
Loretta Lynn & Willie Nelson / Full Circle (2)
––––––––––––––––––––––––––––––––––––––––

DR Peak RMS Duration Track
––––––––––––––––––––––––––––––––––––––––
DR9 0.00 dB -10.03 dB 3:02 13-Everything It Takes
DR9 -0.08 dB -11.80 dB 2:50 14-Lay Me Down
––––––––––––––––––––––––––––––––––––––––

Number of tracks: 2
Official DR value: DR9

Samplerate: 44100 Hz
Channels: 2
Bits per sample: 16
Bitrate: 838 kbps
Codec: FLAC
================================================================================

––––––––––––––––––––––––––––––––––––––––
Analyzed: Loretta Lynn / Full Circle
––––––––––––––––––––––––––––––––––––––––

DR Peak RMS Duration Track
––––––––––––––––––––––––––––––––––––––––
DR13 -1.55 dB -17.63 dB 0:55 01-{Whispering Sea Introduction}
DR9 -0.07 dB -9.82 dB 2:17 02-Whispering Sea
DR9 -0.05 dB -11.00 dB 3:21 03-Secret Love
DR9 -0.02 dB -11.43 dB 2:45 04-Who's Gonna Miss Me?
DR8 -0.03 dB -9.49 dB 2:10 05-Black Jack David
DR8 0.00 dB -8.82 dB 2:53 06-Everybody Wants To Go To Heaven
DR8 0.00 dB -9.64 dB 3:27 07-Always On My Mind
DR9 -0.02 dB -10.64 dB 3:21 08-Wine Into Water
DR10 0.00 dB -12.82 dB 3:07 09-In The Pines
DR8 0.00 dB -9.51 dB 2:52 10-Band Of Gold
DR8 0.00 dB -9.21 dB 2:17 11-Fist City
DR10 -0.23 dB -13.76 dB 3:38 12-I Never Will Marry
––––––––––––––––––––––––––––––––––––––––

Number of tracks: 12
Official DR value: DR9

Samplerate: 44100 Hz
Channels: 2
Bits per sample: 16
Bitrate: 838 kbps
Codec: FLAC
================================================================================

Loretta Lynn - Full Circle (2016) [Re-Up]

Loretta Lynn - Full Circle (2016) [Re-Up]