Tags
Language
Tags

Lorin Maazel, Orchestre et Chœur du Théâtre National de l’Opéra de Paris - Mozart: Don Giovanni (2009)

Posted By: ArlegZ
Lorin Maazel, Orchestre et Chœur du Théâtre National de l’Opéra de Paris - Mozart: Don Giovanni (2009)

Lorin Maazel, Orchestre et Chœur du Théâtre National de l’Opéra de Paris - Mozart: Don Giovanni (2009)
EAC | FLAC | Image (Cue & Log) ~ 772 Mb | Total time: 167:52 | Scans included
Classical | Label: Sony | # 88697527262 | Recorded: 1978

Raimondi has advantages: the dark coloring of his voice, the vocal menace, the power of his bass." The three ladies - especially the Te Kanawa has become livelier, more insistent - Maazel has the singers and Mozart firmly in hand.
– Hermes Lexikon

Performer:
Don Giovanni - Ruggero Raimondi
Il Commendatore - John Macurdy
Donna Anna - Edda Moser
Don Ottavio - Kenneth Riegel
Donna Elvira - Kiri Te Kanawa
Leporello - José Van Dam
Zerlina - Teresa Berganza
Masetto - Malcolm King
Orchestre et Chœur du Théâtre National de l’Opéra de Paris
Paris National Opera Orchestra & Chorus
Conductor - Lorin Maazel

Track List:
CD1:
01. Ouvertura
02. Atto I. Notte e giorno faticar (Leporello)
03. Leporello, ove sei? (Don Giovanni)
04. Ah! del padre in periglio
05. Fuggi, crudele, fuggi! (Donna Anna)
06. Orsù, spicciati presto (Don Giovanni)
07. Ah! chi mi dice mai (Donna Elvira)
08. Chi è là? (Donna Elvira)
09. Madamina, il catalogo è questo (Leporello)
10. Giovinette, che fate all'amore (Zerlina)
11. Manco male, è partita (Don Giovanni)
12. Ho capito, signor, sì! (Masetto)
13. Alfin siam liberati (Don Giovanni)
14. Là ci darem la mano (Don Giovanni)
15. Fermati, scellerato! (Donna Elvira)
16. Ah! fuggi il traditor (Donna Elvira)
17. Mi par ch'oggi il demonio (Don Giovanni)
18. Ah, ti ritrovo ancor… Non to fidar, o misera (Donna Elvira)
19. Povera sventurata! (Don Giovanni)
20. Don Ottavio, son morta! (Donna Anna)
21. Or sai chi l'onore (Donna Anna)
22. Come mai creder deggio (Don Ottavio)
23. Dalla sua pace la mia dipende (Don Ottavio)
CD2:
01. Io deggio, ad ogni patto (Leporello)
02. Finch'han dal vino (Don Giovanni)
03. Masetto, senti un po'! (Zerlina)
04. Batti, batti, o bel Masetto (Zerlina)
05. Guarda un po' come seppe (Masetto)
06. Presto, presto, pria che venga (Masetto)
07. Su, svegliatevi, da bravi! (Don Giovanni)
08. Tra quest'arbori celata (Zerlina)
09. Bisogna aver coraggio (Donna Elvira)
10. Protegga il giusto cielo (Donna Anna)
11. Riposate, vezzose ragazze (Don Giovanni)
12. Venite pur avanti (Leporello)
13. Ecco il birbo che t'ha offesa (Don Giovanni)
14. Trema, trema, o scellerato (Tutti)
15. Atto II. Eh via, buffone, non mi seccar! (Don Giovanni)
16. Leporello! - Signore? (Don Giovanni)
17. Ah! taci, ingiusto core (Donna Elvira)
18. Amico, che ti par? (Don Giovanni)
19. Eccomi a voi (Donna Elvira)
20. Deh! vieni alla finestra (Don Giovanni)
21. V'è gente alla finestra (Don Giovanni)
22. Metà di voi qua vadano (Don Giovanni)
23. Zitto! lascia ch'io senta (Don Giovanni)
24. Ahi! Ahi! La testa mia! (Masetto)
25. Vedrai, carino (Zerlina)
26. Di molte faci il lume (Leporello)
27. Sola, sola, in buio loco (Donna Elvira)
28. Ferma, briccone! Dove ten vai? (Zerlina)
29. Mille torbidi pensieri (Leporello)
30. Dunque quello sei tu (Zerlina)
31. Ah, pietà, signori miei! (Leporello)
32. Ferma, perfido, ferma! (Donna Elvira)
33. Il mio tesoro intanto (Don Ottavio)
CD3:
01. In quali eccessi (Donna Elvira)
02. Mi tradì quell'alma ingrata (Donna Elvira)
03. Ah! ah! ah! questa è buona! (Don Giovanni)
04. O statua gentilissima (Leporello)
05. Calmatevi, idol mio (Don Ottavio)
06. Crudele! Ah no, mio bene!… Non mi dir (Donna Anna)
07. Forse un giorno (Donna Anna)
08. Ah, si segua il suo passo (Don Ottavio)
09. Già la mensa è preparata (Don Giovanni)
10. l'ultima prova (Donna Elvira)
11. Don Giovanni, a cenar teco (Commendatore)
12. Da qual tremore insolito (Don Giovanni)
13. Ah! Dov'è il perfido? (Tutti)
14. Or che tutti, o mio tesoro (Don Ottavio)
15. Questo è il fin (Tutti)


Exact Audio Copy V1.6 from 23. October 2020

EAC extraction logfile from 27. July 2021, 15:16

Lorin Maazel, Orchestre et Chœur du Théâtre National de l’Opéra de Paris / Mozart - Don Giovanni CD1

Used drive : PIONEER DVD-RW DVR-218L Adapter: 1 ID: 0

Read mode : Secure
Utilize accurate stream : Yes
Defeat audio cache : Yes
Make use of C2 pointers : No

Read offset correction : 6
Overread into Lead-In and Lead-Out : No
Fill up missing offset samples with silence : Yes
Delete leading and trailing silent blocks : No
Null samples used in CRC calculations : Yes
Used interface : Native Win32 interface for Win NT & 2000

Used output format : User Defined Encoder
Selected bitrate : 128 kBit/s
Quality : High
Add ID3 tag : No
Command line compressor : C:\Program Files\Exact Audio Copy\Flac\flac.exe
Additional command line options : -V -8 -T "Date=%year%" -T "Genre=%genre%" %source%


TOC of the extracted CD

Track | Start | Length | Start sector | End sector
––––––––––––––––––––––––––––-
1 | 0:00.00 | 5:55.00 | 0 | 26624
2 | 5:55.00 | 5:18.12 | 26625 | 50486
3 | 11:13.12 | 0:30.30 | 50487 | 52766
4 | 11:43.42 | 2:58.35 | 52767 | 66151
5 | 14:42.02 | 3:38.15 | 66152 | 82516
6 | 18:20.17 | 1:33.40 | 82517 | 89531
7 | 19:53.57 | 3:21.08 | 89532 | 104614
8 | 23:14.65 | 2:50.35 | 104615 | 117399
9 | 26:05.25 | 5:43.20 | 117400 | 143144
10 | 31:48.45 | 1:24.07 | 143145 | 149451
11 | 33:12.52 | 2:11.53 | 149452 | 159329
12 | 35:24.30 | 1:35.37 | 159330 | 166491
13 | 36:59.67 | 1:48.13 | 166492 | 174604
14 | 38:48.05 | 3:10.17 | 174605 | 188871
15 | 41:58.22 | 0:46.18 | 188872 | 192339
16 | 42:44.40 | 1:08.10 | 192340 | 197449
17 | 43:52.50 | 0:55.62 | 197450 | 201636
18 | 44:48.37 | 4:50.35 | 201637 | 223421
19 | 49:38.72 | 0:18.18 | 223422 | 224789
20 | 49:57.15 | 3:40.62 | 224790 | 241351
21 | 53:38.02 | 2:48.30 | 241352 | 253981
22 | 56:26.32 | 0:36.13 | 253982 | 256694
23 | 57:02.45 | 3:40.37 | 256695 | 273231


Range status and errors

Selected range

Filename C:\ArlegZ\Mozart - Don Giovanni - Lorin Maazel CD1.wav

Peak level 82.6 %
Extraction speed 2.0 X
Range quality 100.0 %
Test CRC 7436539B
Copy CRC 7436539B
Copy OK

No errors occurred


AccurateRip summary

Track 1 accurately ripped (confidence 3) [C314E911] (AR v2)
Track 2 accurately ripped (confidence 3) [FD1863A1] (AR v2)
Track 3 accurately ripped (confidence 3) [80F14B93] (AR v2)
Track 4 accurately ripped (confidence 3) [95EDA227] (AR v2)
Track 5 accurately ripped (confidence 3) [68E068FF] (AR v2)
Track 6 accurately ripped (confidence 3) [51733109] (AR v2)
Track 7 accurately ripped (confidence 3) [FE59B366] (AR v2)
Track 8 accurately ripped (confidence 3) [08D68DC0] (AR v2)
Track 9 accurately ripped (confidence 3) [9C1E7DF2] (AR v2)
Track 10 accurately ripped (confidence 3) [23EB1A1D] (AR v2)
Track 11 accurately ripped (confidence 3) [00D5C22D] (AR v2)
Track 12 accurately ripped (confidence 3) [1C2DECF2] (AR v2)
Track 13 accurately ripped (confidence 3) [20E770DC] (AR v2)
Track 14 accurately ripped (confidence 3) [B49C2707] (AR v2)
Track 15 accurately ripped (confidence 3) [014030D8] (AR v2)
Track 16 accurately ripped (confidence 3) [CC46B843] (AR v2)
Track 17 accurately ripped (confidence 3) [5B9796C7] (AR v2)
Track 18 accurately ripped (confidence 3) [31AE5A5B] (AR v2)
Track 19 accurately ripped (confidence 3) [53B0316B] (AR v2)
Track 20 accurately ripped (confidence 3) [FD10184B] (AR v2)
Track 21 accurately ripped (confidence 3) [FBED8184] (AR v2)
Track 22 accurately ripped (confidence 3) [6E105321] (AR v2)
Track 23 accurately ripped (confidence 3) [82A72B57] (AR v2)

All tracks accurately ripped

End of status report

–– CUETools DB Plugin V2.1.6

[CTDB TOCID: BgaVgFOSOyx9WfeXsaVDus9QhRY-] found
Submit result: BgaVgFOSOyx9WfeXsaVDus9QhRY- has been confirmed
Track | CTDB Status
1 | (46/63) Accurately ripped
2 | (46/63) Accurately ripped
3 | (46/63) Accurately ripped
4 | (46/63) Accurately ripped
5 | (46/63) Accurately ripped
6 | (46/63) Accurately ripped
7 | (46/63) Accurately ripped
8 | (46/63) Accurately ripped
9 | (46/63) Accurately ripped
10 | (46/63) Accurately ripped
11 | (46/63) Accurately ripped
12 | (46/63) Accurately ripped
13 | (46/63) Accurately ripped
14 | (45/63) Accurately ripped
15 | (45/63) Accurately ripped
16 | (45/63) Accurately ripped
17 | (45/63) Accurately ripped
18 | (46/63) Accurately ripped
19 | (46/63) Accurately ripped
20 | (45/63) Accurately ripped
21 | (46/63) Accurately ripped
22 | (46/63) Accurately ripped
23 | (46/63) Accurately ripped


==== Log checksum C58B458B5457F78BC3CD100723A3590553812155B3778E18A6EF4EED48B8C453 ====


Exact Audio Copy V1.6 from 23. October 2020

EAC extraction logfile from 27. July 2021, 16:43

Lorin Maazel, Orchestre et Chœur du Théâtre National de l’Opéra de Paris / Mozart - Don Giovanni CD2

Used drive : PIONEER DVD-RW DVR-218L Adapter: 1 ID: 0

Read mode : Secure
Utilize accurate stream : Yes
Defeat audio cache : Yes
Make use of C2 pointers : No

Read offset correction : 6
Overread into Lead-In and Lead-Out : No
Fill up missing offset samples with silence : Yes
Delete leading and trailing silent blocks : No
Null samples used in CRC calculations : Yes
Used interface : Native Win32 interface for Win NT & 2000

Used output format : User Defined Encoder
Selected bitrate : 128 kBit/s
Quality : High
Add ID3 tag : No
Command line compressor : C:\Program Files\Exact Audio Copy\Flac\flac.exe
Additional command line options : -V -8 -T "Date=%year%" -T "Genre=%genre%" %source%


TOC of the extracted CD

Track | Start | Length | Start sector | End sector
––––––––––––––––––––––––––––-
1 | 0:00.00 | 1:41.62 | 0 | 7636
2 | 1:41.62 | 1:21.43 | 7637 | 13754
3 | 3:03.30 | 1:22.54 | 13755 | 19958
4 | 4:26.09 | 3:46.11 | 19959 | 36919
5 | 8:12.20 | 0:41.70 | 36920 | 40064
6 | 8:54.15 | 1:05.32 | 40065 | 44971
7 | 9:59.47 | 0:52.55 | 44972 | 48926
8 | 10:52.27 | 2:21.53 | 48927 | 59554
9 | 13:14.05 | 2:12.47 | 59555 | 69501
10 | 15:26.52 | 2:13.43 | 69502 | 79519
11 | 17:40.20 | 1:15.10 | 79520 | 85154
12 | 18:55.30 | 4:05.37 | 85155 | 103566
13 | 23:00.67 | 1:31.45 | 103567 | 110436
14 | 24:32.37 | 2:06.38 | 110437 | 119924
15 | 26:39.00 | 1:05.12 | 119925 | 124811
16 | 27:44.12 | 1:48.63 | 124812 | 132974
17 | 29:33.00 | 4:40.45 | 132975 | 154019
18 | 34:13.45 | 0:25.32 | 154020 | 155926
19 | 34:39.02 | 1:40.60 | 155927 | 163486
20 | 36:19.62 | 1:48.45 | 163487 | 171631
21 | 38:08.32 | 1:11.33 | 171632 | 176989
22 | 39:19.65 | 2:46.15 | 176990 | 189454
23 | 42:06.05 | 0:43.15 | 189455 | 192694
24 | 42:49.20 | 1:32.42 | 192695 | 199636
25 | 44:21.62 | 3:29.58 | 199637 | 215369
26 | 47:51.45 | 0:41.62 | 215370 | 218506
27 | 48:33.32 | 2:35.66 | 218507 | 230197
28 | 51:09.23 | 2:09.17 | 230198 | 239889
29 | 53:18.40 | 2:29.60 | 239890 | 251124
30 | 55:48.25 | 0:27.12 | 251125 | 253161
31 | 56:15.37 | 1:38.15 | 253162 | 260526
32 | 57:53.52 | 0:56.50 | 260527 | 264776
33 | 58:50.27 | 4:13.18 | 264777 | 283769


Range status and errors

Selected range

Filename C:\ArlegZ\Mozart - Don Giovanni - Lorin Maazel CD2.wav

Peak level 83.4 %
Extraction speed 2.0 X
Range quality 100.0 %
Test CRC B59E2411
Copy CRC B59E2411
Copy OK

No errors occurred


AccurateRip summary

Track 1 accurately ripped (confidence 3) [2E50C1B4] (AR v2)
Track 2 accurately ripped (confidence 3) [78C11424] (AR v2)
Track 3 accurately ripped (confidence 3) [F6354125] (AR v2)
Track 4 accurately ripped (confidence 3) [FFACEAAB] (AR v2)
Track 5 accurately ripped (confidence 3) [8F76A629] (AR v2)
Track 6 accurately ripped (confidence 3) [6F71374F] (AR v2)
Track 7 accurately ripped (confidence 3) [AC938856] (AR v2)
Track 8 accurately ripped (confidence 3) [8F89EEB5] (AR v2)
Track 9 accurately ripped (confidence 3) [06198F74] (AR v2)
Track 10 accurately ripped (confidence 3) [2868FA76] (AR v2)
Track 11 accurately ripped (confidence 3) [431B50D4] (AR v2)
Track 12 accurately ripped (confidence 3) [705D7785] (AR v2)
Track 13 accurately ripped (confidence 3) [4C24CF8F] (AR v2)
Track 14 accurately ripped (confidence 3) [BFB51EB9] (AR v2)
Track 15 accurately ripped (confidence 3) [D170EB8C] (AR v2)
Track 16 accurately ripped (confidence 3) [79DC6455] (AR v2)
Track 17 accurately ripped (confidence 3) [D136367A] (AR v2)
Track 18 accurately ripped (confidence 3) [4DD479B7] (AR v2)
Track 19 accurately ripped (confidence 3) [54980937] (AR v2)
Track 20 accurately ripped (confidence 3) [764141AE] (AR v2)
Track 21 accurately ripped (confidence 3) [214910F0] (AR v2)
Track 22 accurately ripped (confidence 3) [A85D94EB] (AR v2)
Track 23 accurately ripped (confidence 3) [B6D85834] (AR v2)
Track 24 accurately ripped (confidence 3) [F5C6BE19] (AR v2)
Track 25 accurately ripped (confidence 3) [684ECC4C] (AR v2)
Track 26 accurately ripped (confidence 3) [90E12C0D] (AR v2)
Track 27 accurately ripped (confidence 3) [A15D6B8E] (AR v2)
Track 28 accurately ripped (confidence 3) [378F8306] (AR v2)
Track 29 accurately ripped (confidence 3) [1F3F1FD5] (AR v2)
Track 30 accurately ripped (confidence 3) [837E7DAB] (AR v2)
Track 31 accurately ripped (confidence 3) [48FB25DB] (AR v2)
Track 32 accurately ripped (confidence 3) [2FE1AD46] (AR v2)
Track 33 accurately ripped (confidence 3) [F400394D] (AR v2)

All tracks accurately ripped

End of status report

–– CUETools DB Plugin V2.1.6

[CTDB TOCID: 3xp743.3NRFvEYzoNcZCnJ.RWts-] found
Submit result: 3xp743.3NRFvEYzoNcZCnJ.RWts- has been confirmed
Track | CTDB Status
1 | (48/48) Accurately ripped
2 | (48/48) Accurately ripped
3 | (48/48) Accurately ripped
4 | (48/48) Accurately ripped
5 | (48/48) Accurately ripped
6 | (48/48) Accurately ripped
7 | (48/48) Accurately ripped
8 | (48/48) Accurately ripped
9 | (48/48) Accurately ripped
10 | (48/48) Accurately ripped
11 | (48/48) Accurately ripped
12 | (48/48) Accurately ripped
13 | (48/48) Accurately ripped
14 | (48/48) Accurately ripped
15 | (48/48) Accurately ripped
16 | (48/48) Accurately ripped
17 | (48/48) Accurately ripped
18 | (48/48) Accurately ripped
19 | (48/48) Accurately ripped
20 | (48/48) Accurately ripped
21 | (48/48) Accurately ripped
22 | (48/48) Accurately ripped
23 | (48/48) Accurately ripped
24 | (48/48) Accurately ripped
25 | (47/48) Accurately ripped
26 | (48/48) Accurately ripped
27 | (48/48) Accurately ripped
28 | (48/48) Accurately ripped
29 | (47/48) Accurately ripped
30 | (48/48) Accurately ripped
31 | (48/48) Accurately ripped
32 | (48/48) Accurately ripped
33 | (46/48) Accurately ripped


==== Log checksum 9761D818D2C59CD49D197EEA5636F24566F8CCDB0B469BEFE4BCD049C8ED4411 ====


Exact Audio Copy V1.6 from 23. October 2020

EAC extraction logfile from 27. July 2021, 17:40

Lorin Maazel, Orchestre et Chœur du Théâtre National de l’Opéra de Paris / Mozart - Don Giovanni CD3

Used drive : PIONEER DVD-RW DVR-218L Adapter: 1 ID: 0

Read mode : Secure
Utilize accurate stream : Yes
Defeat audio cache : Yes
Make use of C2 pointers : No

Read offset correction : 6
Overread into Lead-In and Lead-Out : No
Fill up missing offset samples with silence : Yes
Delete leading and trailing silent blocks : No
Null samples used in CRC calculations : Yes
Used interface : Native Win32 interface for Win NT & 2000

Used output format : User Defined Encoder
Selected bitrate : 128 kBit/s
Quality : High
Add ID3 tag : No
Command line compressor : C:\Program Files\Exact Audio Copy\Flac\flac.exe
Additional command line options : -V -8 -T "Date=%year%" -T "Genre=%genre%" %source%


TOC of the extracted CD

Track | Start | Length | Start sector | End sector
––––––––––––––––––––––––––––-
1 | 0:00.00 | 2:38.67 | 0 | 11916
2 | 2:38.67 | 4:09.23 | 11917 | 30614
3 | 6:48.15 | 4:15.15 | 30615 | 49754
4 | 11:03.30 | 3:32.52 | 49755 | 65706
5 | 14:36.07 | 0:54.68 | 65707 | 69824
6 | 15:31.00 | 5:03.17 | 69825 | 92566
7 | 20:34.17 | 2:03.55 | 92567 | 101846
8 | 22:37.72 | 0:27.73 | 101847 | 103944
9 | 23:05.70 | 4:17.55 | 103945 | 123274
10 | 27:23.50 | 3:25.00 | 123275 | 138649
11 | 30:48.50 | 6:13.30 | 138650 | 166654
12 | 37:02.05 | 1:22.30 | 166655 | 172834
13 | 38:24.35 | 1:29.40 | 172835 | 179549
14 | 39:54.00 | 2:43.55 | 179550 | 191829
15 | 42:37.55 | 1:33.27 | 191830 | 198831


Range status and errors

Selected range

Filename C:\ArlegZ\Mozart - Don Giovanni - Lorin Maazel CD3.wav

Peak level 87.3 %
Extraction speed 1.7 X
Range quality 100.0 %
Test CRC EA7EC586
Copy CRC EA7EC586
Copy OK

No errors occurred


AccurateRip summary

Track 1 accurately ripped (confidence 3) [BA68B53C] (AR v2)
Track 2 accurately ripped (confidence 3) [8229C76A] (AR v2)
Track 3 accurately ripped (confidence 3) [558C2D56] (AR v2)
Track 4 accurately ripped (confidence 3) [399DC1E6] (AR v2)
Track 5 accurately ripped (confidence 2) [1AE56F51] (AR v2)
Track 6 accurately ripped (confidence 2) [F3DB5C0E] (AR v2)
Track 7 accurately ripped (confidence 3) [83C3ABAC] (AR v2)
Track 8 accurately ripped (confidence 2) [C27E31E4] (AR v2)
Track 9 accurately ripped (confidence 3) [C6B7BD4E] (AR v2)
Track 10 accurately ripped (confidence 3) [6DFE9216] (AR v2)
Track 11 accurately ripped (confidence 3) [04A8F2E6] (AR v2)
Track 12 accurately ripped (confidence 3) [C89098A0] (AR v2)
Track 13 accurately ripped (confidence 3) [7DBF1A71] (AR v2)
Track 14 accurately ripped (confidence 3) [FF65EB67] (AR v2)
Track 15 accurately ripped (confidence 3) [FF092229] (AR v2)

All tracks accurately ripped

End of status report

–– CUETools DB Plugin V2.1.6

[CTDB TOCID: T2erAklDIZaxI5xPTq6cWG7I0yM-] found
Submit result: T2erAklDIZaxI5xPTq6cWG7I0yM- has been confirmed
Track | CTDB Status
1 | (55/71) Accurately ripped
2 | (55/71) Accurately ripped
3 | (53/71) Accurately ripped
4 | (49/71) Accurately ripped
5 | (55/71) Accurately ripped
6 | (49/71) Accurately ripped
7 | (49/71) Accurately ripped
8 | (55/71) Accurately ripped
9 | (55/71) Accurately ripped
10 | (55/71) Accurately ripped
11 | (55/71) Accurately ripped
12 | (55/71) Accurately ripped
13 | (55/71) Accurately ripped
14 | (55/71) Accurately ripped
15 | (54/71) Accurately ripped


==== Log checksum B2ACA66027A08DCEBD9A80FB6E5CA23650957F4360FDDAAF1770C821ACB0EE91 ====

Lorin Maazel, Orchestre et Chœur du Théâtre National de l’Opéra de Paris - Mozart: Don Giovanni (2009)