Tags
Language
Tags

Marisa Anderson & William Tyler - Lost Futures (2021)

Posted By: SERTiL
Marisa Anderson & William Tyler - Lost Futures (2021)

Marisa Anderson & William Tyler - Lost Futures (2021)
EAC Rip | FLAC (tracks+log+.cue) - 224 Mb | MP3 CBR 320 Kbps - 92.4 MB | 41:07
Folk, American primitive, Singer-songwriter | Label: Thrill Jockey / Thrill542 / 790377054262

Guitarists Marisa Anderson and William Tyler distill deeply rooted and varied traditions into distinctive voices all their own. Anderson and Tyler are each unyielding in their desire to extend through those traditions and the confines of “guitar music” to craft music at once intimate and expansive, conversational and transcendent. The duo’s debut collaborative album tethers together their singular voices into unified narratives that glisten, drive, and sway. On Lost Futures, Anderson and Tyler’s guitars dance through lush arrangements and pastoral duets serpentine and reverent.

The kindred musicians first collaborated in the days following a Portland show commemorating the life of the late David Berman. As Anderson tells it, “There was an obvious and immediate affinity musically and personally which led to the feeling that we should try and do something together, but in January of 2020, both of us had pretty full schedules so it was more of a vague idea to do something, someday… then COVID hit.” With tours sidelined and the increasing tensions of isolation, unrest and ecological disaster looming, the duo set to composing and collaborating remotely. Tyler joined Anderson in Portland for a week before recording as protests across the city escalated and raging wildfires cast a dangerous haze. Against the tumultuous backdrop the duo found harmony in their quick, organic development as a compositional team. Rich ballads and breezy rambles flourished as the duo explored new rhythmic techniques and elaborated on unused riffs. In uniting to meditate on their musical practices together, the two guitarists composed music filled with the joy of playing together while having a sober tone reflective of the troubled state of the world around them.

Lost Futures takes its name from writer Mark Fisher’s cultural theory of the loss of potential futures, the hopes and ideals which once felt inevitable but have since been interrupted. Anderson and Tyler’s use of textural drones, rhythmic repetition and harmonic shifts embody the building tensions of uncertainty created by profound loss: loss of life, experience, companionship, compassion. “For every choice made, every path taken, there are multitudes of choices not made, paths not taken,” notes Anderson. “At the Edge of the World” manifests the energy of perpetual momentum through string player Gisela Rodriguez Fernandez’s staccato jabs and the clicking scrapes of patricia vázquez gómez’s quijada. The unison melody of “Pray For Rain” sounds as a chorus collectively asking when relief will come. A drone-via-repetition on “Something Will Come'' invokes a sonic mirage that suspends reality as subtle yet revelatory changes froth from beneath the haze. Still, hope and catharsis find a way to shine through the mire in the duo’s implementation of space and tonal balance. With title track “Lost Futures,” Anderson and Tyler’s lullabye-like counter melodies lace around one another with the gentle ease of a friendly embrace.

Across Lost Futures, Anderson and Tyler mold their instruments into breathtaking panoramas of blight and bliss. Each movement contains a dense biome of transportive sound. The duo’s music together reckons with mounting pressures as well as the joy of newfound friendship and gratitude for being able to play together. In tandem, Marisa Anderson and William Tyler have composed a work of remarkable breadth, brimming with resplendent odes of solace.

Tracklist:
1. News About Heaven (03:56)
2. Lost Futures (02:54)
3. Pray for Rain (05:14)
4. Something Will Come (06:02)
5. At the Edge of the World (06:16)
6. Hurricane Light (03:56)
7. Life and Casualty (04:05)
8. Haunted By Water (08:43)

Exact Audio Copy V1.3 from 2. September 2016

EAC extraction logfile from 4. September 2021, 0:30

Marisa Anderson and William Tyler / Lost Futures

Used drive : hp CDDVDW SH-216AL Adapter: 1 ID: 0

Read mode : Secure
Utilize accurate stream : Yes
Defeat audio cache : Yes
Make use of C2 pointers : No

Read offset correction : 6
Overread into Lead-In and Lead-Out : No
Fill up missing offset samples with silence : Yes
Delete leading and trailing silent blocks : No
Null samples used in CRC calculations : Yes
Used interface : Native Win32 interface for Win NT & 2000
Gap handling : Appended to previous track

Used output format : User Defined Encoder
Selected bitrate : 1024 kBit/s
Quality : High
Add ID3 tag : No
Command line compressor : C:\Program Files (x86)\Exact Audio Copy\Flac\flac.exe
Additional command line options : -8 -e -p -V -T "ARTIST=%artist%" -T "TITLE=%title%" -T "ALBUM=%albumtitle%" -T "DATE=%year%" -T "TRACKNUMBER=%tracknr%" -T "GENRE=%genre%" -T "PERFORMER=%albuminterpret%" -T "COMPOSER=%composer%" %haslyrics%–tag-from-file=LYRICS="%lyricsfile%"%haslyrics% -T "ALBUMARTIST=%albumartist%" -T "DISCNUMBER=%cdnumber%" -T "TOTALDISCS=%totalcds%" -T "TOTALTRACKS=%numtracks%" -T "COMMENT=%comment%" %source% -o %dest%


TOC of the extracted CD

Track | Start | Length | Start sector | End sector
––––––––––––––––––––––––––––-
1 | 0:00.00 | 3:56.28 | 0 | 17727
2 | 3:56.28 | 2:54.57 | 17728 | 30834
3 | 6:51.10 | 5:14.12 | 30835 | 54396
4 | 12:05.22 | 6:02.37 | 54397 | 81583
5 | 18:07.59 | 6:16.44 | 81584 | 109827
6 | 24:24.28 | 3:56.22 | 109828 | 127549
7 | 28:20.50 | 4:05.00 | 127550 | 145924
8 | 32:25.50 | 8:44.01 | 145925 | 185225


Track 1

Filename C:\Rips v4\Marisa Anderson & William Tyler - Lost Futures {2021} [THRILL 542] (FLAC)\01 - News About Heaven.wav

Pre-gap length 0:00:02.00

Peak level 96.5 %
Extraction speed 3.5 X
Track quality 99.9 %
Test CRC 06BC5DBF
Copy CRC 06BC5DBF
Track not present in AccurateRip database
Copy OK

Track 2

Filename C:\Rips v4\Marisa Anderson & William Tyler - Lost Futures {2021} [THRILL 542] (FLAC)\02 - Lost Futures.wav

Peak level 96.4 %
Extraction speed 4.5 X
Track quality 100.0 %
Test CRC D5E3116D
Copy CRC D5E3116D
Track not present in AccurateRip database
Copy OK

Track 3

Filename C:\Rips v4\Marisa Anderson & William Tyler - Lost Futures {2021} [THRILL 542] (FLAC)\03 - Pray for Rain.wav

Peak level 96.6 %
Extraction speed 5.4 X
Track quality 100.0 %
Test CRC 50BF6D80
Copy CRC 50BF6D80
Track not present in AccurateRip database
Copy OK

Track 4

Filename C:\Rips v4\Marisa Anderson & William Tyler - Lost Futures {2021} [THRILL 542] (FLAC)\04 - Something Will Come.wav

Peak level 96.6 %
Extraction speed 6.0 X
Track quality 100.0 %
Test CRC 465B6C7B
Copy CRC 465B6C7B
Track not present in AccurateRip database
Copy OK

Track 5

Filename C:\Rips v4\Marisa Anderson & William Tyler - Lost Futures {2021} [THRILL 542] (FLAC)\05 - At the Edge of the World.wav

Peak level 96.6 %
Extraction speed 6.5 X
Track quality 100.0 %
Test CRC DB795647
Copy CRC DB795647
Track not present in AccurateRip database
Copy OK

Track 6

Filename C:\Rips v4\Marisa Anderson & William Tyler - Lost Futures {2021} [THRILL 542] (FLAC)\06 - Hurricane Light.wav

Peak level 96.6 %
Extraction speed 6.5 X
Track quality 100.0 %
Test CRC 8ABE038F
Copy CRC 8ABE038F
Track not present in AccurateRip database
Copy OK

Track 7

Filename C:\Rips v4\Marisa Anderson & William Tyler - Lost Futures {2021} [THRILL 542] (FLAC)\07 - Life and Casualty.wav

Peak level 96.6 %
Extraction speed 5.6 X
Track quality 99.9 %
Test CRC B98D7A31
Copy CRC B98D7A31
Track not present in AccurateRip database
Copy OK

Track 8

Filename C:\Rips v4\Marisa Anderson & William Tyler - Lost Futures {2021} [THRILL 542] (FLAC)\08 - Haunted By Water.wav

Peak level 96.6 %
Extraction speed 7.9 X
Track quality 100.0 %
Test CRC 1A9FE66A
Copy CRC 1A9FE66A
Track not present in AccurateRip database
Copy OK


None of the tracks are present in the AccurateRip database

No errors occurred

End of status report

–– CUETools DB Plugin V2.1.6

[CTDB TOCID: 90quvhvKgfFakUZAbKdz8K_TSEQ-] found
Submit result: 90quvhvKgfFakUZAbKdz8K_TSEQ- has been confirmed
Track | CTDB Status
1 | (1/1) Accurately ripped
2 | (1/1) Accurately ripped
3 | (1/1) Accurately ripped
4 | (1/1) Accurately ripped
5 | (1/1) Accurately ripped
6 | (1/1) Accurately ripped
7 | (1/1) Accurately ripped
8 | (1/1) Accurately ripped


==== Log checksum DE3743C4540880F8666789923F584ED263F9058E9EFB79E5C91C9C05FAB64A49 ====


Thanks to the Original customer.