Tags
Language
Tags

Love - The Best of Love (2003) [Re-Up]

Posted By: Designol
Love - The Best of Love (2003) [Re-Up]

Love - The Best of Love (2003)
EAC | FLAC | Image (Cue&Log) ~ 504 Mb | Mp3 (CBR320) ~ 195 Mb | Scans included
Label: Elektra/Rhino | # 8122-73840-2 | Time: 01:15:50
Folk-Rock, Psychedelic Rock, Baroque Pop

Love is in the air on a 22-track compilation from Arthur Lee's Legendary Band! The oft-overused word groundbreaking could in fact have been coined to describe the brief and brilliant career arc of Love, the pioneering psychedelic folk-rock group that was the brainchild of singer-songwriter and formidable frontman Arthur Lee. They are one of the first fully integrated acts in popular music - the visionary Lee is an African-American from Memphis, TN, who migrated west before finding fame. It's also a fact that Love was the first rock band signed to Jac Holzman's now-legendary 1960s Elektra roster, where they were instrumental in helping The Doors get started. Love's genius 1967 LP Forever Changes is considered one of the best pop albums ever made, and undoubtedly vies for most inclusions on the all-time Top 10 lists of music critics everywhere. Love made four albums from 1966-69 (including that masterwork), and it's from this quintessential quartet of recordings - plus two non-LP singles from the era - that THE BEST OF LOVE draws its incandescent repertoire.

This 2003 CD is an entirely different release than the vinyl LP Best of Love that came out on Rhino in 1980. Although it does happen to include 15 of the 16 tracks from the 1980 release, the CD The Best of Love expands the program to 22 songs, adding a few tracks from Love, Forever Changes, and Four Sail (and dropping the 1966 B-side "Number Fourteen"). A Love best-of, it should be cautioned, is not the best way to appreciate a band whose first three albums are better heard in their totality, particularly Forever Changes. It's also true that for a bigger cash splash you can get the two-CD Love Story 1966-1972, which has all of these songs and more (including all of Forever Changes and some good tracks from the first two albums that miss the listing on The Best of Love, like "A Message to Pretty" and "The Castle"). Still, if you do want a one-disc Love best-of, this has a lot of good music and generally pinpoints the highlights of the group's early albums, though the Four Sail tracks and the non-LP 1968 single "Your Mind and We Belong Together"/"Laughing Stock" are in no way as good as the missing tracks from Forever Changes. The packaging and liner notes are good, too, though again it's not nearly as comprehensive as what you'll find on Love Story.

Review by Richie Unterberger, Allmusic.com

Some of the best-known bands in Los Angeles in the Sixties became brand names for a particular style of rock: jangling folk rock for the Byrds, portentous doom rock for the Doors. Love not only bridged the gap between those two groups, they also tried to summon up every color of psychedelia. The range of their sound meant that they never really progressed past cult-band status, but Love were a cult worth joining and still sound fresh and inventive today. Lead singer Arthur Lee, a black man from Memphis, led this interracial band into uncharted waters, singing about orange skies and snot caked on his pants. This generous twenty-two-track compilation ranges from hard-rock freakouts ("Seven and Seven Is") to wistful pop ("She Comes in Colors") to trippy mariachi ("Maybe the People Would Be the Times, or Between Clark and Hilldale"). It also includes the grooviest up-tempo version of "Hey Joe" you'll ever hear.

Review by Gavin Edwards, RollingStone.com

Love - The Best of Love (2003) [Re-Up]



Tracklist:

01. My Little Red Book (02:33)
02. Can't Explain (02:40)
03. Softly To Me (02:56)
04. No Matter What You Do (02:45)
05. Hey Joe (02:43)
06. Signed D.C. (02:46)
07. Seven & Seven Is (02:19)
08. Stephanie Knows Who (02:32)
09. Orange Skies (02:51)
10. iQue Vida! (03:41)
11. She Comes In Colors (02:46)
12. Alone Again Or (03:16)
13. Andmoreagain (03:20)
14. Maybe The People Would Be The Times Or Between Clark And Hilldale (03:33)
15. Live And Let Live (05:26)
16. You Set The Scene (06:52)
17. Your Mind And We Belong Together (04:28)
18. Laughing Stock (02:33)
19. Singing Cowboy (04:49)
20. Your Friend And Mine-Neil's Song (03:48)
21. Robert Montgomery (03:39)
22. Always See Your Face (03:23)


Exact Audio Copy V1.0 beta 3 from 29. August 2011

EAC extraction logfile from 9. June 2015, 11:20

Love / The Best of Love

Used drive : ASUS DRW-1814BLT Adapter: 3 ID: 0

Read mode : Secure
Utilize accurate stream : Yes
Defeat audio cache : Yes
Make use of C2 pointers : No

Read offset correction : 6
Overread into Lead-In and Lead-Out : No
Fill up missing offset samples with silence : Yes
Delete leading and trailing silent blocks : No
Null samples used in CRC calculations : Yes
Used interface : Installed external ASPI interface

Used output format : User Defined Encoder
Selected bitrate : 896 kBit/s
Quality : High
Add ID3 tag : No
Command line compressor : K:\Programm\eac\Exact Audio Copy\Flac\flac.exe
Additional command line options : -V -8 -T "Date=%year%" -T "Genre=%genre%" %source%


TOC of the extracted CD

Track | Start | Length | Start sector | End sector
––––––––––––––––––––––––––––-
1 | 0:00.00 | 2:33.25 | 0 | 11499
2 | 2:33.25 | 2:40.15 | 11500 | 23514
3 | 5:13.40 | 2:56.62 | 23515 | 36776
4 | 8:10.27 | 2:45.53 | 36777 | 49204
5 | 10:56.05 | 2:43.55 | 49205 | 61484
6 | 13:39.60 | 2:46.62 | 61485 | 73996
7 | 16:26.47 | 2:19.08 | 73997 | 84429
8 | 18:45.55 | 2:32.20 | 84430 | 95849
9 | 21:18.00 | 2:51.50 | 95850 | 108724
10 | 24:09.50 | 3:41.40 | 108725 | 125339
11 | 27:51.15 | 2:46.25 | 125340 | 137814
12 | 30:37.40 | 3:16.40 | 137815 | 152554
13 | 33:54.05 | 3:20.05 | 152555 | 167559
14 | 37:14.10 | 3:33.42 | 167560 | 183576
15 | 40:47.52 | 5:26.53 | 183577 | 208079
16 | 46:14.30 | 6:52.20 | 208080 | 238999
17 | 53:06.50 | 4:28.55 | 239000 | 259154
18 | 57:35.30 | 2:33.62 | 259155 | 270691
19 | 60:09.17 | 4:49.50 | 270692 | 292416
20 | 64:58.67 | 3:48.08 | 292417 | 309524
21 | 68:47.00 | 3:39.35 | 309525 | 325984
22 | 72:26.35 | 3:23.30 | 325985 | 341239


Range status and errors

Selected range

Filename F:\EAC\Love - The Best of Love.wav

Peak level 97.2 %
Extraction speed 3.5 X
Range quality 100.0 %
Test CRC 5E8C520D
Copy CRC 5E8C520D
Copy OK

No errors occurred


AccurateRip summary

Track 1 accurately ripped (confidence 4) [48DFBE8F] (AR v2)
Track 2 accurately ripped (confidence 4) [17922C3F] (AR v2)
Track 3 accurately ripped (confidence 4) [42FDC03F] (AR v2)
Track 4 accurately ripped (confidence 4) [20ACDA16] (AR v2)
Track 5 accurately ripped (confidence 4) [21FD9A25] (AR v2)
Track 6 accurately ripped (confidence 4) [4292F731] (AR v2)
Track 7 accurately ripped (confidence 5) [DE815B08] (AR v2)
Track 8 accurately ripped (confidence 4) [DE779E4D] (AR v2)
Track 9 accurately ripped (confidence 4) [7B587FCB] (AR v2)
Track 10 accurately ripped (confidence 4) [11B9FE17] (AR v2)
Track 11 accurately ripped (confidence 4) [EC3CE41C] (AR v2)
Track 12 accurately ripped (confidence 5) [74281211] (AR v2)
Track 13 accurately ripped (confidence 4) [128E357A] (AR v2)
Track 14 accurately ripped (confidence 4) [7204B362] (AR v2)
Track 15 accurately ripped (confidence 4) [FC6D479C] (AR v2)
Track 16 accurately ripped (confidence 4) [328978CA] (AR v2)
Track 17 accurately ripped (confidence 4) [DE19C1DF] (AR v2)
Track 18 accurately ripped (confidence 4) [20CBA340] (AR v2)
Track 19 accurately ripped (confidence 4) [E49BFDB0] (AR v2)
Track 20 accurately ripped (confidence 4) [539076AB] (AR v2)
Track 21 accurately ripped (confidence 4) [2F014D60] (AR v2)
Track 22 accurately ripped (confidence 4) [3F6347D3] (AR v2)

All tracks accurately ripped

End of status report

–– CUETools DB Plugin V2.1.4

[CTDB TOCID: 3k_6Eg5cHuv9T4yTqJSfYO6hiYI-] found
Submit result: already submitted
Track | CTDB Status
1 | (13/14) Accurately ripped
2 | (14/14) Accurately ripped
3 | (14/14) Accurately ripped
4 | (14/14) Accurately ripped
5 | (14/14) Accurately ripped
6 | (14/14) Accurately ripped
7 | (14/14) Accurately ripped
8 | (14/14) Accurately ripped
9 | (14/14) Accurately ripped
10 | (14/14) Accurately ripped
11 | (14/14) Accurately ripped
12 | (14/14) Accurately ripped
13 | (14/14) Accurately ripped
14 | (14/14) Accurately ripped
15 | (14/14) Accurately ripped
16 | (14/14) Accurately ripped
17 | (14/14) Accurately ripped
18 | (14/14) Accurately ripped
19 | (14/14) Accurately ripped
20 | (14/14) Accurately ripped
21 | (14/14) Accurately ripped
22 | (14/14) Accurately ripped


==== Log checksum 7A1D85BAF9CB1C508B2E86AC29FFD8A299443C4880D7FAECCB4E7D2AE681CEB7 ====

foobar2000 1.2 / Dynamic Range Meter 1.1.1
log date: 2017-01-27 21:02:02

––––––––––––––––––––––––––––––––––––––––
Analyzed: Love / The Best of Love
––––––––––––––––––––––––––––––––––––––––

DR Peak RMS Duration Track
––––––––––––––––––––––––––––––––––––––––
DR10 -0.24 dB -12.47 dB 2:33 01-My Little Red Book
DR11 -0.24 dB -12.44 dB 2:40 02-Can't Explain
DR11 -0.48 dB -13.93 dB 2:57 03-Softly To Me
DR11 -0.48 dB -13.69 dB 2:46 04-No Matter What You Do
DR10 -0.48 dB -11.69 dB 2:44 05-Hey Joe
DR13 -0.92 dB -18.30 dB 2:47 06-Signed D.C.
DR9 -0.48 dB -11.68 dB 2:19 07-Seven & Seven Is
DR11 -0.24 dB -13.74 dB 2:32 08-Stephanie Knows Who
DR10 -1.02 dB -14.44 dB 2:52 09-Orange Skies
DR12 -0.24 dB -14.82 dB 3:42 10-iQue Vida!
DR10 -0.24 dB -12.43 dB 2:46 11-She Comes In Colors
DR11 -0.24 dB -15.06 dB 3:17 12-Alone Again Or
DR13 -0.24 dB -15.54 dB 3:20 13-Andmoreagain
DR10 -0.24 dB -11.84 dB 3:34 14-Maybe The People Would Be The Times Or Between Clark And Hilldale
DR9 -0.78 dB -12.92 dB 5:27 15-Live And Let Live
DR9 -0.78 dB -12.95 dB 6:52 16-You Set The Scene
DR9 -0.78 dB -12.49 dB 4:29 17-Your Mind And We Belong Together
DR10 -1.01 dB -13.95 dB 2:34 18-Laughing Stock
DR9 -0.24 dB -11.89 dB 4:50 19-Singing Cowboy
DR10 -0.35 dB -12.86 dB 3:48 20-Your Friend And Mine-Neil's Song
DR10 -0.24 dB -11.38 dB 3:39 21-Robert Montgomery
DR9 -1.58 dB -13.12 dB 3:23 22-Always See Your Face
––––––––––––––––––––––––––––––––––––––––

Number of tracks: 22
Official DR value: DR10

Samplerate: 44100 Hz
Channels: 2
Bits per sample: 16
Bitrate: 861 kbps
Codec: FLAC
================================================================================

Love - The Best of Love (2003) [Re-Up]

Love - The Best of Love (2003) [Re-Up]