Subcategories

Lumieres - La musique du XVIIIeme siecle (29 CD): Part 03 [2011]

Posted By: Vilboa
Lumieres - La musique du XVIIIeme siecle (29 CD): Part 03 [2011]

Lumières - La musique du XVIIIème siècle (29 CD): Part 03 [2011]
Classical | Harmonia Mundi 2908601.30 | TT: 81.11+72.34+65.55+62.29 | EAC (FLAC, cue, log) | Covers | 1.22 Gb

The eighteenth century is probably the most extraordinary period of transformation Europe has known since antiquity. Political upheavals kept pace with the innumerable inventions and discoveries of the age; every sector of the arts and of intellectual and material life was turned upside down. Between the end of the reign of Louis XIV and the revolution of 1789, music in its turn underwent a radical mutation that struck at the very heart of a well-established musical language. In this domain too, we are all children of the Age of Enlightenment: our conception of music and the way we ‘consume’ it still follows in many respects the agenda set by the eighteenth century. And it is not entirely by chance that harmonia mundi has chosen to offer you in 2011 a survey of this musical revolution which, without claiming to be exhaustive, will enable you to grasp the principal outlines of musical creation between the twilight of the Baroque and the dawn of Romanticism.

CD9: From 'Sinfonia' to 'Sinfonie' [81.11]

Lumieres - La musique du XVIIIeme siecle (29 CD): Part 03 [2011]

Track List & Cast:
Giovanni Battista Sammartini
01. Sinfonia in D major, JC14: Allegro - Largo - Presto
02. Sinfonia in G major, JC39: Allegro ma non tanto - Grave - Allegro assai - Menuetto

Ensemble 415
Conductor - Chiara Banchini


Wilhelm Friedemann Bach - Sinfonie in F major, Falck 67
03. I. Vivace
04. II. Andante
05. III. Allegro
06. IV. Menuetto I & II

Akademie für Alte Musik Berlin
Conductor - Stephan Mai


Carl Philipp Emmanuel Bach - Orchester-Sinfonie No.1, Wq.183/1
07. I. Allegro di molto
08. II. Largo
09. III. Presto

The English Concert
Conductor - Andrew Manze


Johann Christian Bach - Symphony in G minor Op.6 No.6
10. I. Allegro
11. II. Andante più tosto adagio
12. III. Allegro molto

Akademie für Alte Musik Berlin
Conductor - Stephan Mai


Luigi Boccherini - Symphony in D minor 'La casa del Diavolo' Op.12 No.4, G.506
13. I. Andante sostenuto - Allegro assai
14. II. Andantino con moto
15. III. III. Andante sostenuto - Allegro assai con moto

Ensemble 415
Conductor - Chiara Banchini


Exact Audio Copy V1.0 beta 3 from 29. August 2011

EAC extraction logfile from 6. February 2017, 14:33

Ensemble 415, Akademie für Alte Musik Berlin, The English Concert / From 'Sinfonia' to 'Sinfonie'

Used drive : PIONEER BD-RW BDR-207M Adapter: 0 ID: 0

Read mode : Secure
Utilize accurate stream : Yes
Defeat audio cache : Yes
Make use of C2 pointers : No

Read offset correction : 667
Overread into Lead-In and Lead-Out : No
Fill up missing offset samples with silence : Yes
Delete leading and trailing silent blocks : No
Null samples used in CRC calculations : Yes
Used interface : Native Win32 interface for Win NT & 2000

Used output format : User Defined Encoder
Selected bitrate : 128 kBit/s
Quality : High
Add ID3 tag : No
Command line compressor : C:\Program Files\Exact Audio Copy\Flac\flac.exe
Additional command line options : -V -8 -T "Date=%year%" -T "Genre=%genre%" %source%


TOC of the extracted CD

Track | Start | Length | Start sector | End sector
––––––––––––––––––––––––––––-
1 | 0:00.00 | 5:59.15 | 0 | 26939
2 | 5:59.15 | 9:55.46 | 26940 | 71610
3 | 15:54.61 | 3:48.61 | 71611 | 88771
4 | 19:43.47 | 5:03.36 | 88772 | 111532
5 | 24:47.08 | 3:39.69 | 111533 | 128026
6 | 28:27.02 | 2:47.43 | 128027 | 140594
7 | 31:14.45 | 6:16.03 | 140595 | 168797
8 | 37:30.48 | 1:55.33 | 168798 | 177455
9 | 39:26.06 | 3:00.15 | 177456 | 190970
10 | 42:26.21 | 3:06.65 | 190971 | 204985
11 | 45:33.11 | 8:34.58 | 204986 | 243593
12 | 54:07.69 | 2:17.26 | 243594 | 253894
13 | 56:25.20 | 11:05.09 | 253895 | 303778
14 | 67:30.29 | 6:54.48 | 303779 | 334876
15 | 74:25.02 | 6:44.47 | 334877 | 365223


Range status and errors

Selected range

Filename C:\From 'Sinfonia' to 'Sinfonie'.wav

Peak level 95.3 %
Extraction speed 2.1 X
Range quality 100.0 %
Test CRC 61678757
Copy CRC 61678757
Copy OK

No errors occurred

End of status report

==== Log checksum 534D4EF08EDF5BF3F842D105A694DAB33C617589FCC3050B5AA9C80D71887677 ====


CD10: Symphony: Orchestral Performance [72.34]

Lumieres - La musique du XVIIIeme siecle (29 CD): Part 03 [2011]

Track List & Cast:
Joseph Haydn
01. Symphony No.6 in D major 'Le Matin', Hob.I:6: I. Adagio - Allegro
02. II. Adagio - Andante - Adagio
03. III. Menuetto avec Trio
04. IV. Finale: Allegro
05. Symphony No.7 in C major 'Le Midi', Hob.I:7: I. Allegro - Largo - Presto
06. II. Allegro ma non tanto - Grave - Allegro assai - Menuetto
07. III. Vivace
08. IV. Andante

Freiburger Barockorchester
Conductor - Petra Müllejans


Wolfgang Amadeus Mozart
09. Symphony No.31 in D major 'Paris', K.297: I. Allegro assai
10. II/1. Andante
11. III. Allegro
12. II/2. Andante (deuxième version)

Freiburger Barockorchester
Conductor - Gottfried Von der Goltz


Exact Audio Copy V1.0 beta 3 from 29. August 2011

EAC extraction logfile from 6. February 2017, 15:34

Freiburger Barockorchester / Symphony - Orchestral Performance

Used drive : PIONEER BD-RW BDR-207M Adapter: 0 ID: 0

Read mode : Secure
Utilize accurate stream : Yes
Defeat audio cache : Yes
Make use of C2 pointers : No

Read offset correction : 667
Overread into Lead-In and Lead-Out : No
Fill up missing offset samples with silence : Yes
Delete leading and trailing silent blocks : No
Null samples used in CRC calculations : Yes
Used interface : Native Win32 interface for Win NT & 2000

Used output format : User Defined Encoder
Selected bitrate : 128 kBit/s
Quality : High
Add ID3 tag : No
Command line compressor : C:\Program Files\Exact Audio Copy\Flac\flac.exe
Additional command line options : -V -8 -T "Date=%year%" -T "Genre=%genre%" %source%


TOC of the extracted CD

Track | Start | Length | Start sector | End sector
––––––––––––––––––––––––––––-
1 | 0:00.00 | 6:08.58 | 0 | 27657
2 | 6:08.58 | 8:37.52 | 27658 | 66484
3 | 14:46.35 | 4:13.14 | 66485 | 85473
4 | 18:59.49 | 4:46.62 | 85474 | 106985
5 | 23:46.36 | 8:06.54 | 106986 | 143489
6 | 31:53.15 | 10:18.39 | 143490 | 189878
7 | 42:11.54 | 3:45.31 | 189879 | 206784
8 | 45:57.10 | 4:23.39 | 206785 | 226548
9 | 50:20.49 | 7:32.16 | 226549 | 260464
10 | 57:52.65 | 4:06.62 | 260465 | 278976
11 | 61:59.52 | 3:51.34 | 278977 | 296335
12 | 65:51.11 | 5:33.69 | 296336 | 321379


Range status and errors

Selected range

Filename C:\Symphony - Orchestral Performance.wav

Peak level 99.8 %
Extraction speed 5.0 X
Range quality 100.0 %
Test CRC A2104395
Copy CRC A2104395
Copy OK

No errors occurred

End of status report

==== Log checksum 06A2FF9EF2ED30C364CFB3271ED5FDD6ABD57D0617DA39B4C599A7C42A8E97AD ====


CD11: Symphony: The Monuments of Classicism [65.55]

Lumieres - La musique du XVIIIeme siecle (29 CD): Part 03 [2011]

Track List & Cast:
Joseph Haydn
01. Symphony No.92 in G major 'Oxford': I. Adagio - Allegro spiritoso
02. II. Adagio
03. III. Menuet. Allegretto
04. IV. Finale - Presto
Wolfgang Amadeus Mozart
05. Symphony No.41 in C major 'Jupiter', K.551: I. Allegro vivace
06. II. Andante cantabile
07. III. Menuetto - Allegro - Trio
08. IV. Molto Allegro

Freiburger Barockorchester
Conductor - René Jacobs


Exact Audio Copy V1.0 beta 3 from 29. August 2011

EAC extraction logfile from 6. February 2017, 16:09

René Jacobs, Freiburger Barockorchester / Symphony - The Monuments of Classicism

Used drive : PIONEER BD-RW BDR-207M Adapter: 0 ID: 0

Read mode : Secure
Utilize accurate stream : Yes
Defeat audio cache : Yes
Make use of C2 pointers : No

Read offset correction : 667
Overread into Lead-In and Lead-Out : No
Fill up missing offset samples with silence : Yes
Delete leading and trailing silent blocks : No
Null samples used in CRC calculations : Yes
Used interface : Native Win32 interface for Win NT & 2000

Used output format : User Defined Encoder
Selected bitrate : 128 kBit/s
Quality : High
Add ID3 tag : No
Command line compressor : C:\Program Files\Exact Audio Copy\Flac\flac.exe
Additional command line options : -V -8 -T "Date=%year%" -T "Genre=%genre%" %source%


TOC of the extracted CD

Track | Start | Length | Start sector | End sector
––––––––––––––––––––––––––––-
1 | 0:00.00 | 10:34.73 | 0 | 47622
2 | 10:34.73 | 7:55.63 | 47623 | 83310
3 | 18:30.61 | 4:30.15 | 83311 | 103575
4 | 23:01.01 | 7:08.26 | 103576 | 135701
5 | 30:09.27 | 10:37.35 | 135702 | 183511
6 | 40:46.62 | 9:52.00 | 183512 | 227911
7 | 50:38.62 | 3:23.59 | 227912 | 243195
8 | 54:02.46 | 12:01.53 | 243196 | 297323


Range status and errors

Selected range

Filename C:\Symphony - The Monuments of Classicism.wav

Peak level 99.8 %
Extraction speed 5.0 X
Range quality 100.0 %
Test CRC CE65FBA0
Copy CRC CE65FBA0
Copy OK

No errors occurred

End of status report

==== Log checksum 777EA8B43730E5A38A35A53DD85F549C11B1413775D1B1E5D422D661B2A5C41A ====


CD12: Symphony: The 'Ninth' [62.29]

Lumieres - La musique du XVIIIeme siecle (29 CD): Part 03 [2011]

Track List & Cast:
Ludwig van Beethoven - Symphonie No.9, Op.125
01. I. Allegro ma non troppo, un poco maestoso
02. II. Molto vivace
03. III. Adagio
04. IV. Finale. Presto

Melanie Diener, soprano
Petra Lang, mezzo-soprano
Endrik Wottrich, tenor
Dietrich Henschel, bass
La Chapelle Royale, Collegium Vocale
Orchestre des Champs-Elysés
Conductor - Philippe Herreweghe


Exact Audio Copy V1.0 beta 3 from 29. August 2011

EAC extraction logfile from 6. February 2017, 16:40

Philippe Herreweghe , Orchestre des Champs Elysées / Beethoven - Symphonie No.9, Op.125

Used drive : PIONEER BD-RW BDR-207M Adapter: 0 ID: 0

Read mode : Secure
Utilize accurate stream : Yes
Defeat audio cache : Yes
Make use of C2 pointers : No

Read offset correction : 667
Overread into Lead-In and Lead-Out : No
Fill up missing offset samples with silence : Yes
Delete leading and trailing silent blocks : No
Null samples used in CRC calculations : Yes
Used interface : Native Win32 interface for Win NT & 2000

Used output format : User Defined Encoder
Selected bitrate : 128 kBit/s
Quality : High
Add ID3 tag : No
Command line compressor : C:\Program Files\Exact Audio Copy\Flac\flac.exe
Additional command line options : -V -8 -T "Date=%year%" -T "Genre=%genre%" %source%


TOC of the extracted CD

Track | Start | Length | Start sector | End sector
––––––––––––––––––––––––––––-
1 | 0:00.00 | 13:32.65 | 0 | 60964
2 | 13:32.65 | 13:24.73 | 60965 | 121337
3 | 26:57.63 | 12:28.11 | 121338 | 177448
4 | 39:25.74 | 23:02.03 | 177449 | 281101


Range status and errors

Selected range

Filename C:\Beethoven - Symphonie No.9, Op.125.wav

Peak level 99.6 %
Extraction speed 7.2 X
Range quality 100.0 %
Test CRC 4998C45D
Copy CRC 4998C45D
Copy OK

No errors occurred

End of status report

==== Log checksum 48A56E5CA2ECB8C1990925F88679F9BDBB6914B31997D9512FEEBC845AF1E65D ====