Tags
Language
Tags

Lurrie Bell - Cuttin' Heads (2004)

Posted By: Designol
Lurrie Bell - Cuttin' Heads (2004)

Lurrie Bell - Cuttin' Heads (2004)
EAC | FLAC | Image (Cue&Log) ~ 390 Mb | Mp3 (CBR320) ~ 174 Mb | Scans included
Modern Electric Chicago Blues | Label: Isabel | # IS 640401 | Time: 00:57:50

One of the greatest talents in blues - latest since his appearance at the 1977 'Berlin Jazz Festival'. Due to severe health problems, his career never really got started. During the second half of the 1990s he had sort-of-a comeback when recording three albums for Delmark. This great set was recorded in 2000 and shows him in good shape. His vocals sound intense, mature and emotional. Still you can hear the early influence of Albert King in Lurrie's guitar soloing. Backed by a superb band, this record is one Lurrie's best in recent times.

Lurrie Bell was born on December 13, 1958, in Chicago. His famous father, harpist Carey Bell, had him working out on guitar as a wee lad. By 1977, he was recording with his dad and playing behind a variety of established stars, tabbed by many observers at the time as a sure star on the rise. But personal problems took their toll on his great potential; Bell's recorded output and live performances were inconsistent in the '80s and early '90s. Among the highlights of Bell's discography are three tracks in tandem with harpist Billy Branch under the Sons of Blues banner (Bell was a founding member of the band) from Alligator's first batch of 1978 Living Chicago Blues anthologies and a 1984 collaboration, Son of a Gun, with his old man for Rooster Blues. Then there's his set for Delmark, Mercurial Son, as bizarre a contemporary blues album as you're likely to encounter. Bell followed Mercurial Son with the more straightforward 700 Blues in spring 1997; The Blues Had a Baby appeared two years later. Let's Talk About Love (2007) and The Devil Ain't Got No Music (2012), both appeared on Bell's own record label Aria B.G. In 2013, he returned to Delmark with the release of Blues in My Soul, which celebrated the guitarist's straight-ahead Chicago blues roots.

Bill Dahl, Allmusic.com

Lurrie Bell - Cuttin' Heads (2004)



Tracklist:

01. I've Got A Watch On You (04:43)
02. A Man And The Blues (09:37)
03. One Day (05:18)
04. I'll Be Your 44 (06:00)
05. Leaning Tree (09:52)
06. Call Me On The Phone (04:52)
07. Smoke Stack Lightning (01:49)
08. I'll Play The Blues For You (07:25)
09. I Ain't Nobody (04:01)
10. 4.59 Am (04:07)


Exact Audio Copy V1.0 beta 6 from 9. April 2015

Отчёт EAC об извлечении, выполненном 30. апреля 2015, 20:53

Lurrie Bell / Cuttin' Heads

Дисковод: SONY CD-RW CRX230ED Adapter: 1 ID: 0

Режим чтения : Достоверность
Использование точного потока : Да
Отключение кэша аудио : Да
Использование указателей C2 : Нет

Коррекция смещения при чтении : 6
Способность читать области Lead-in и Lead-out : Нет
Заполнение пропущенных сэмплов тишиной : Да
Удаление блоков с тишиной в начале и конце : Нет
При вычислениях CRC использовались нулевые сэмплы : Да
Интерфейс : Встроенный Win32-интерфейс для Win NT/2000

Выходной формат : Внутренние WAV-операции
Формат сэмплов : 44.100 Гц; 16 бит; стерео


TOC извлечённого CD

Трек | Старт | Длительность | Начальный сектор | Конечный сектор
––––––––––––––––––––––––––––––––––-
1 | 0:00.51 | 4:43.16 | 51 | 21291
2 | 4:43.67 | 9:37.49 | 21292 | 64615
3 | 14:21.41 | 5:18.42 | 64616 | 88507
4 | 19:40.08 | 6:00.69 | 88508 | 115576
5 | 25:41.02 | 9:52.22 | 115577 | 159998
6 | 35:33.24 | 4:52.74 | 159999 | 181972
7 | 40:26.23 | 1:49.52 | 181973 | 190199
8 | 42:16.00 | 7:25.72 | 190200 | 223646
9 | 49:41.72 | 4:01.37 | 223647 | 241758
10 | 53:43.34 | 4:07.49 | 241759 | 260332


Характеристики диапазона извлечения и сообщения об ошибках

Выбранный диапазон

Имя файла F:\MusicCD\Torrent\Lurrie Bell - Cuttin' Heads\Lurrie Bell - Cuttin' Heads.wav

Пиковый уровень 99.9 %
Скорость извлечения 7.8 X
Качество диапазона 100.0 %
CRC теста C625AD65
CRC копии C625AD65
Копирование… OK

Ошибок не произошло


AccurateRip: сводка

Трек 1 : извлечено точно (доверие 2) [56F0E96B] (AR v2)
Трек 2 : извлечено точно (доверие 2) [494E077B] (AR v2)
Трек 3 : извлечено точно (доверие 2) [563645AE] (AR v2)
Трек 4 : извлечено точно (доверие 2) [8C19CFBD] (AR v2)
Трек 5 : извлечено точно (доверие 2) [FC5ABB22] (AR v2)
Трек 6 : извлечено точно (доверие 2) [8B62AEC6] (AR v2)
Трек 7 : извлечено точно (доверие 2) [B74BE762] (AR v2)
Трек 8 : извлечено точно (доверие 2) [F5755E42] (AR v2)
Трек 9 : извлечено точно (доверие 2) [19C305B3] (AR v2)
Трек 10 : извлечено точно (доверие 2) [4E3E4ECE] (AR v2)

Все треки извлечены точно

Конец отчёта

–– CUETools DB Plugin V2.1.6

[CTDB TOCID: cVnqYGlCeuImN7Mi65nR9.t.7hQ-] found
Submit result: cVnqYGlCeuImN7Mi65nR9.t.7hQ- has been confirmed
Track | CTDB Status
1 | (1/1) Accurately ripped
2 | (1/1) Accurately ripped
3 | (1/1) Accurately ripped
4 | (1/1) Accurately ripped
5 | (1/1) Accurately ripped
6 | (1/1) Accurately ripped
7 | (1/1) Accurately ripped
8 | (1/1) Accurately ripped
9 | (1/1) Accurately ripped
10 | (1/1) Accurately ripped


==== Контрольная сумма отчёта 3AF25971F4521342C88897EC82FBE05E976F36B7A06F2996E6D7F67B64152270 ====

foobar2000 1.2 / Dynamic Range Meter 1.1.1
log date: 2015-05-01 21:19:53

––––––––––––––––––––––––––––––––––––––––
Analyzed: Lurrie Bell / Cuttin' Heads
––––––––––––––––––––––––––––––––––––––––

DR Peak RMS Duration Track
––––––––––––––––––––––––––––––––––––––––
DR10 -0.06 dB -11.99 dB 4:43 01-I've Got A Watch On You
DR10 -0.14 dB -11.78 dB 9:38 02-A Man And The Blues
DR10 0.00 dB -11.73 dB 5:19 03-One Day
DR10 -0.58 dB -12.18 dB 6:01 04-I'll Be Your 44
DR10 0.00 dB -13.75 dB 9:52 05-Leaning Tree
DR8 0.00 dB -9.59 dB 4:53 06-Call Me On The Phone
DR10 -0.10 dB -11.35 dB 1:50 07-Smoke Stack Lightning
DR11 -0.03 dB -11.92 dB 7:26 08-I'll Play The Blues For You
DR10 0.00 dB -11.16 dB 4:01 09-I Ain't Nobody
DR11 -0.05 dB -12.06 dB 4:08 10-4.59 Am
––––––––––––––––––––––––––––––––––––––––

Number of tracks: 10
Official DR value: DR10

Samplerate: 44100 Hz
Channels: 2
Bits per sample: 16
Bitrate: 842 kbps
Codec: FLAC
================================================================================

Lurrie Bell - Cuttin' Heads (2004)

Lurrie Bell - Cuttin' Heads (2004)

All thanks to original releaser - squirr

More interesting music in My Blog